<?xml version="1.0" standalone="no"?>
<!DOCTYPE svg PUBLIC "-//W3C//DTD SVG 1.1//EN" "http://www.w3.org/Graphics/SVG/1.1/DTD/svg11.dtd" >
<svg xmlns="http://www.w3.org/2000/svg" xmlns:xlink="http://www.w3.org/1999/xlink" version="1.1">
<metadata>
Created by FontForge 20170731 at Thu Aug  6 19:09:00 2015
 By Aleksey,,,
Copyright (c) 2011-2015 by tyPoland Lukasz Dziedzic (http://www.typoland.com/) with Reserved Font Name "Lato". Licensed under the SIL Open Font License, Version 1.1 (http://scripts.sil.org/OFL). 
</metadata>
<defs>
<font id="Lato-Heavy" horiz-adv-x="0" >
  <font-face 
    font-family="Lato Heavy"
    font-weight="800"
    font-stretch="normal"
    units-per-em="2000"
    panose-1="2 15 5 2 2 2 4 3 2 3"
    ascent="1610"
    descent="-390"
    x-height="1031"
    cap-height="1451"
    bbox="-1252 -583 2690 2215"
    underline-thickness="99"
    underline-position="-608"
    unicode-range="U+0020-FEFF"
  />
<missing-glyph horiz-adv-x="1107" 
d="M235 1149q59 47 134 78.5t177 31.5q73 0 131 -19.5t97.5 -54.5t60.5 -85t21 -110q0 -55 -13.5 -94.5t-34 -69t-45 -50.5t-46.5 -39t-39.5 -35.5t-22.5 -39.5l-25 -94h-188l-19 114q-7 38 3.5 65t30 48.5t45 39.5t47.5 38t37 44t15 57q0 29 -19 48t-61 19q-35 0 -57.5 -6
t-39 -13.5t-30.5 -13.5t-30 -6q-37 0 -56 32zM380 321q0 30 11 56.5t31 46t46.5 31t58.5 11.5q31 0 57.5 -11.5t46 -31t31 -46t11.5 -56.5t-11.5 -56.5t-31 -46t-46 -30.5t-57.5 -11q-32 0 -58.5 11t-46.5 30.5t-31 46t-11 56.5zM41 1451h1025v-1451h-1025v1451zM111 74h876
v1303h-876v-1303z" />
    <glyph glyph-name="uniFB00" unicode="ff" horiz-adv-x="1379" 
d="M189 0v833l-80 14q-31 6 -50.5 22t-19.5 46v110h150v50q0 88 27.5 159.5t78.5 121t125 76.5t167 27q36 0 68.5 -5t65.5 -14l-6 -136q-2 -30 -26.5 -40t-54.5 -10q-42 0 -75.5 -9t-56.5 -30.5t-35 -58t-12 -90.5v-41h389v85q0 88 27.5 159.5t78.5 121t125 76.5t167 27
q36 0 68.5 -4.5t65.5 -13.5l-6 -136q-2 -31 -26.5 -40.5t-54.5 -9.5q-42 0 -75.5 -9t-56 -30.5t-34.5 -58t-12 -90.5v-77h255v-192h-247v-833h-275v833h-380v-833h-275z" />
    <glyph glyph-name="uniFB01" unicode="fi" horiz-adv-x="1225" 
d="M189 0v833l-80 14q-31 6 -50.5 22t-19.5 46v110h150v25q0 94 31.5 175.5t97 142t166 95t238.5 34.5q43 0 89 -4.5t79 -13.5l-9 -141q-1 -12 -7.5 -19t-17.5 -11t-24.5 -5t-28.5 -1q-100 0 -167 -16.5t-107 -49.5t-56.5 -82t-16.5 -113v-16h646v-1025h-276v833h-361v-833
h-276z" />
    <glyph glyph-name="uniFB02" unicode="fl" horiz-adv-x="1243" 
d="M189 0v833l-80 14q-31 6 -50.5 22t-19.5 46v110h150v40q0 81 26 156t79.5 133t136 93t195.5 35q94 0 177.5 -6.5t168.5 -6.5h155v-1469h-274v1282q-52 2 -101.5 4.5t-81.5 2.5q-104 0 -159 -57.5t-55 -166.5v-40h234v-192h-225v-833h-276z" />
    <glyph glyph-name="uniFB03" unicode="ffi" horiz-adv-x="1880" 
d="M189 0v833l-80 14q-31 6 -50.5 22t-19.5 46v110h150v50q0 88 27.5 159.5t79 121t125 76.5t166.5 27q37 0 69 -5t65 -14l-5 -136q-2 -30 -27 -40t-54 -10q-43 0 -76 -9t-56 -30.5t-35 -58t-12 -90.5v-41h388v25q0 94 31.5 175.5t97 142t166 95t238.5 34.5q43 0 89 -4.5
t79 -13.5l-9 -141q-2 -24 -25 -30t-53 -6q-100 0 -167 -16.5t-107 -49.5t-56.5 -82t-16.5 -113v-16h646v-1025h-276v833h-361v-833h-276v833h-379v-833h-276z" />
    <glyph glyph-name="uniFB04" unicode="ffl" horiz-adv-x="1897" 
d="M189 0v833l-80 14q-31 6 -50.5 22t-19.5 46v110h150v50q0 88 27.5 159.5t78.5 121t125 76.5t167 27q36 0 68.5 -5t65.5 -14l-6 -136q-2 -30 -26.5 -40t-54.5 -10q-42 0 -75.5 -9t-56.5 -30.5t-35 -58t-12 -90.5v-41h389v40q0 81 26 156t79.5 133t135.5 93t195 35
q94 0 178.5 -6.5t168.5 -6.5h154v-1469h-274v1282q-52 2 -101.5 4.5t-81.5 2.5q-104 0 -158.5 -57.5t-54.5 -166.5v-40h255v-192h-247v-833h-275v833h-380v-833h-275z" />
    <glyph glyph-name="f_b.liga" unicode="fb" horiz-adv-x="1883" 
d="M1132 912q61 61 135 98t166 37q89 0 160.5 -35.5t122 -101.5t78 -159.5t27.5 -209.5q0 -125 -31.5 -227.5t-89.5 -175.5t-138.5 -113t-179.5 -40q-48 0 -86 9.5t-70 26.5t-59 40.5t-51 52.5l-11 -62q-7 -29 -23 -40.5t-43 -11.5h-183v1310q-37 14 -77.5 22.5t-79.5 8.5
q-59 0 -104.5 -19t-76.5 -53t-47 -80.5t-16 -100.5v-63h256v-192h-247v-833h-275v833l-80 14q-31 6 -50.5 22t-19.5 46v110h150v63q0 93 29.5 171.5t93 135.5t163.5 89t242 32q49 0 92.5 -3.5t88.5 -8t94.5 -8.5t112.5 -5h27v-579zM1132 272q39 -45 84.5 -63t94.5 -18
q51 0 92.5 18.5t71.5 59t46 105.5t16 157q0 82 -13 139.5t-38.5 94.5t-62.5 54t-86 17q-65 0 -112.5 -28.5t-92.5 -83.5v-452z" />
    <glyph glyph-name="f_f_b.liga" unicode="ffb" horiz-adv-x="2538" 
d="M189 0v833l-80 14q-31 6 -50.5 22t-19.5 46v110h150v50q0 88 27.5 159.5t78.5 121t125 76.5t167 27q36 0 68.5 -5t65.5 -14l-6 -136q-2 -30 -26.5 -40t-54.5 -10q-42 0 -75.5 -9t-56.5 -30.5t-35 -58t-12 -90.5v-41h389v63q0 93 29.5 171.5t93 135.5t163.5 89t242 32
q52 0 97.5 -4t93 -8.5t101.5 -8.5t123 -4v-579q61 61 135 98t166 37q89 0 160.5 -35.5t122 -101.5t78 -159.5t27.5 -209.5q0 -125 -31.5 -227.5t-89.5 -175.5t-138.5 -113t-179.5 -40q-48 0 -86 9.5t-70 26.5t-59 40.5t-51 52.5l-11 -62q-7 -29 -23 -40.5t-43 -11.5h-183
v1310q-37 14 -77 22.5t-80 8.5q-59 0 -104.5 -19t-76 -53t-46.5 -80.5t-16 -100.5v-63h255v-192h-247v-833h-275v833h-380v-833h-275zM1787 272q39 -45 84.5 -63t94.5 -18q51 0 92.5 18.5t71.5 59t46 105.5t16 157q0 82 -13 139.5t-38.5 94.5t-62.5 54t-86 17
q-65 0 -112.5 -28.5t-92.5 -83.5v-452z" />
    <glyph glyph-name="f_h.liga" unicode="fh" horiz-adv-x="1875" 
d="M1132 930q29 26 60.5 47.5t67 37t76 24t87.5 8.5q84 0 149 -29t109.5 -81t67 -124t22.5 -158v-655h-275v655q0 86 -40 133.5t-118 47.5q-58 0 -109 -25t-97 -70v-741h-276v1310q-37 14 -77.5 22.5t-79.5 8.5q-59 0 -104.5 -19t-76.5 -53t-47 -80.5t-16 -100.5v-63h256
v-192h-247v-833h-275v833l-80 14q-31 6 -50.5 22t-19.5 46v110h150v63q0 93 29.5 171.5t93 135.5t163.5 89t242 32q49 0 92.5 -3.5t88.5 -8t94.5 -8.5t112.5 -5h27v-561z" />
    <glyph glyph-name="f_f_h.liga" unicode="ffh" horiz-adv-x="2531" 
d="M189 0v833l-80 14q-31 6 -50.5 22t-19.5 46v110h150v50q0 88 27.5 159.5t78.5 121t125 76.5t167 27q36 0 68.5 -5t65.5 -14l-6 -136q-2 -30 -26.5 -40t-54.5 -10q-42 0 -75.5 -9t-56.5 -30.5t-35 -58t-12 -90.5v-41h389v63q0 93 29.5 171.5t93 135.5t163.5 89t242 32
q49 0 92.5 -3.5t88.5 -8t94.5 -8.5t112.5 -5h27v-561q29 26 60.5 47.5t67 37t76 24t87.5 8.5q84 0 149 -29t109.5 -81t67 -124t22.5 -158v-655h-275v655q0 86 -40 133.5t-118 47.5q-58 0 -109 -25t-97 -70v-741h-276v1310q-37 14 -77 22.5t-80 8.5q-59 0 -104.5 -19t-76 -53
t-46.5 -80.5t-16 -100.5v-63h255v-192h-247v-833h-275v833h-380v-833h-275z" />
    <glyph glyph-name="f_igrave.liga" unicode="f&#xec;" horiz-adv-x="1225" 
d="M766 1497q75 0 120 -24t67 -62l140 -244h-157q-31 0 -50.5 8.5t-39.5 29.5l-94 96q-84 -3 -140.5 -20.5t-91 -50.5t-49.5 -80.5t-15 -108.5v-16h646v-1025h-276v833h-361v-833h-276v833l-80 14q-31 6 -50.5 22t-19.5 46v110h150v25q0 94 29.5 175.5t97.5 142t178.5 95
t271.5 34.5z" />
    <glyph glyph-name="f_icircumflex.liga" unicode="f&#xee;" horiz-adv-x="1224" 
d="M189 0v833l-80 14q-31 6 -50.5 22t-19.5 46v110h150v112q0 81 21.5 145.5t62.5 109.5t101 69t137 24q29 0 51.5 -2.5t45.5 -10.5v-148q0 -20 -16.5 -27.5t-39.5 -7.5q-53 0 -74.5 -34.5t-21.5 -116.5v-113h646v-1025h-276v833h-361v-833h-276zM1333 1168h-184
q-16 0 -31 5.5t-31 20.5l-88 95q-5 5 -11 11.5t-11 14.5q-12 -15 -23 -26l-90 -95q-28 -26 -62 -26h-191l232 283h258z" />
    <glyph glyph-name="f_itilde.liga" unicode="f&#x129;" horiz-adv-x="1224" 
d="M1071 1372q27 0 43 14.5t16 56.5h168q0 -59 -16.5 -107t-45.5 -81.5t-69 -52t-86 -18.5q-36 0 -67.5 12.5t-59 27t-50.5 27t-41 12.5q-27 0 -42.5 -15.5t-15.5 -57.5h-170q0 59 16.5 107t46 82t69 52.5t85.5 18.5q37 0 69 -12t59 -27t49.5 -27t41.5 -12zM189 0v833
l-80 14q-31 6 -50.5 22t-19.5 46v110h150v112q0 81 21.5 145.5t62.5 109.5t101 69t137 24q29 0 51.5 -2.5t45.5 -10.5v-148q0 -20 -16.5 -27.5t-39.5 -7.5q-53 0 -74.5 -34.5t-21.5 -116.5v-113h646v-1025h-276v833h-361v-833h-276z" />
    <glyph glyph-name="f_idieresis.liga" unicode="f&#xef;" horiz-adv-x="1224" 
d="M935 1294q0 -30 -12 -56t-32.5 -45.5t-48 -30.5t-58.5 -11q-29 0 -55.5 11t-46.5 30.5t-32 45.5t-12 56t12 57t32 47.5t46.5 32t55.5 11.5q31 0 58.5 -11.5t48 -32t32.5 -47.5t12 -57zM1292 1294q0 -30 -12 -56t-32 -45.5t-47 -30.5t-58 -11q-30 0 -57 11t-47.5 30.5
t-32 45.5t-11.5 56t11.5 57t32 47.5t47.5 32t57 11.5q31 0 58 -11.5t47 -32t32 -47.5t12 -57zM189 0v833l-80 14q-31 6 -50.5 22t-19.5 46v110h150v112q0 81 21.5 145.5t62.5 109.5t101 69t137 24q29 0 51.5 -2.5t45.5 -10.5v-148q0 -20 -16.5 -27.5t-39.5 -7.5
q-53 0 -74.5 -34.5t-21.5 -116.5v-113h646v-1025h-276v833h-361v-833h-276z" />
    <glyph glyph-name="f_imacron.liga" unicode="f&#x12b;" horiz-adv-x="1224" 
d="M661 1381h608v-172h-608v172zM189 0v833l-80 14q-31 6 -50.5 22t-19.5 46v110h150v112q0 81 21.5 145.5t62.5 109.5t101 69t137 24q29 0 51.5 -2.5t45.5 -10.5v-148q0 -20 -16.5 -27.5t-39.5 -7.5q-53 0 -74.5 -34.5t-21.5 -116.5v-113h646v-1025h-276v833h-361v-833
h-276z" />
    <glyph glyph-name="f_ibreve.liga" unicode="f&#x12d;" horiz-adv-x="1224" 
d="M965 1160q-89 0 -149.5 23t-97 63t-52 93t-15.5 112h193q0 -29 5 -51.5t18.5 -38t37 -23.5t60.5 -8t60.5 8t37 23.5t18.5 38t5 51.5h193q0 -59 -15.5 -112t-52 -93t-97 -63t-149.5 -23zM189 0v833l-80 14q-31 6 -50.5 22t-19.5 46v110h150v112q0 81 21.5 145.5
t62.5 109.5t101 69t137 24q29 0 51.5 -2.5t45.5 -10.5v-148q0 -20 -16.5 -27.5t-39.5 -7.5q-53 0 -74.5 -34.5t-21.5 -116.5v-113h646v-1025h-276v833h-361v-833h-276z" />
    <glyph glyph-name="f_iogonek.liga" unicode="f&#x12f;" horiz-adv-x="1224" 
d="M189 0v833l-80 14q-31 6 -50.5 22t-19.5 46v110h150v25q0 94 31.5 175.5t97 142t166 95t238.5 34.5q43 0 89 -4.5t79 -13.5l-9 -141q-1 -12 -7.5 -19t-17.5 -11t-24.5 -5t-28.5 -1q-100 0 -167 -16.5t-107 -49.5t-56.5 -82t-16.5 -113v-16h646v-1025h-33
q-20 -11 -38 -24.5t-31.5 -30t-22 -35t-8.5 -39.5q0 -28 16.5 -44t46.5 -16q17 0 28 1.5t17.5 4t11.5 4t10 1.5q19 0 26 -17l41 -100q-34 -22 -84.5 -36.5t-107.5 -14.5q-103 0 -156.5 41.5t-53.5 106.5q0 54 35.5 105t106.5 93h-80v833h-361v-833h-276z" />
    <glyph glyph-name="f_dotlessi.liga" unicode="f&#x131;" horiz-adv-x="1225" 
d="M189 0v833l-80 14q-31 6 -50.5 22t-19.5 46v110h150v112q0 81 21.5 145.5t62.5 109.5t101 69t137 24q29 0 51.5 -2.5t45.5 -10.5v-148q0 -20 -16.5 -27.5t-39.5 -7.5q-53 0 -74.5 -34.5t-21.5 -116.5v-113h646v-1025h-276v833h-361v-833h-276z" />
    <glyph glyph-name="f_f_igrave.liga" unicode="ff&#xec;" horiz-adv-x="1880" 
d="M1481 0v833h-362v-833h-275v833h-379v-833h-276v832l-80 15q-31 6 -50.5 22t-19.5 46v110h150v50q0 88 27.5 159.5t79 121t125 76.5t166.5 27q37 0 69 -5t65 -14l-5 -136q-2 -30 -27 -40t-54 -10q-43 0 -76 -9t-56 -30.5t-35 -58t-12 -90.5v-41h388v85q0 89 32 160
t97.5 121t166 76.5t237.5 26.5q99 0 148 -14t64 -39l156 -274h-156q-32 0 -51 8.5t-39 29.5l-104 107h-16q-75 0 -126 -12.5t-82.5 -38.5t-45.5 -65.5t-14 -93.5v-77h645v-1025h-275z" />
    <glyph glyph-name="f_f_icircumflex.liga" unicode="ff&#xee;" horiz-adv-x="1879" 
d="M189 0v833l-80 14q-31 6 -50.5 22t-19.5 46v110h150v50q0 88 27.5 159.5t79 121t125 76.5t166.5 27q37 0 69 -5t65 -14l-5 -136q-2 -30 -27 -40t-54 -10q-43 0 -76 -9t-56 -30.5t-35 -58t-12 -90.5v-41h388v112q0 81 21.5 145.5t62.5 109.5t101 69t137 24q29 0 51.5 -2.5
t45.5 -10.5v-148q0 -20 -16.5 -27.5t-39.5 -7.5q-53 0 -74.5 -34.5t-21.5 -116.5v-113h646v-1025h-276v833h-361v-833h-276v833h-379v-833h-276zM1985 1168h-184q-16 0 -31 5.5t-31 20.5l-88 95q-5 5 -11 11.5t-11 14.5q-12 -15 -23 -26l-90 -95q-28 -26 -62 -26h-191
l232 283h258z" />
    <glyph glyph-name="f_f_itilde.liga" unicode="ff&#x129;" horiz-adv-x="1879" 
d="M189 0v833l-80 14q-31 6 -50.5 22t-19.5 46v110h150v50q0 88 27.5 159.5t79 121t125 76.5t166.5 27q37 0 69 -5t65 -14l-5 -136q-2 -30 -27 -40t-54 -10q-43 0 -76 -9t-56 -30.5t-35 -58t-12 -90.5v-41h388v112q0 81 21.5 145.5t62.5 109.5t101 69t137 24q29 0 51.5 -2.5
t45.5 -10.5v-148q0 -20 -16.5 -27.5t-39.5 -7.5q-53 0 -74.5 -34.5t-21.5 -116.5v-113h646v-1025h-276v833h-361v-833h-276v833h-379v-833h-276zM1729 1372q27 0 43 14.5t16 56.5h168q0 -59 -16.5 -107t-45.5 -81.5t-69 -52t-86 -18.5q-36 0 -67.5 12.5t-59 27t-50.5 27
t-41 12.5q-27 0 -42.5 -15.5t-15.5 -57.5h-170q0 59 16.5 107t46 82t69 52.5t85.5 18.5q37 0 69 -12t59 -27t49.5 -27t41.5 -12z" />
    <glyph glyph-name="f_f_idieresis.liga" unicode="ff&#xef;" horiz-adv-x="1879" 
d="M1590 1294q0 -30 -12 -56t-32.5 -45.5t-48 -30.5t-58.5 -11q-29 0 -55.5 11t-46.5 30.5t-32 45.5t-12 56t12 57t32 47.5t46.5 32t55.5 11.5q31 0 58.5 -11.5t48 -32t32.5 -47.5t12 -57zM1947 1294q0 -30 -12 -56t-32 -45.5t-47.5 -30.5t-58.5 -11q-30 0 -57 11t-47 30.5
t-31.5 45.5t-11.5 56t11.5 57t31.5 47.5t47 32t57 11.5q31 0 58.5 -11.5t47.5 -32t32 -47.5t12 -57zM189 0v833l-80 14q-31 6 -50.5 22t-19.5 46v110h150v50q0 88 27.5 159.5t79 121t125 76.5t166.5 27q37 0 69 -5t65 -14l-5 -136q-2 -30 -27 -40t-54 -10q-43 0 -76 -9
t-56 -30.5t-35 -58t-12 -90.5v-41h388v112q0 81 21.5 145.5t62.5 109.5t101 69t137 24q29 0 51.5 -2.5t45.5 -10.5v-148q0 -20 -16.5 -27.5t-39.5 -7.5q-53 0 -74.5 -34.5t-21.5 -116.5v-113h646v-1025h-276v833h-361v-833h-276v833h-379v-833h-276z" />
    <glyph glyph-name="f_f_imacron.liga" unicode="ff&#x12b;" horiz-adv-x="1879" 
d="M189 0v833l-80 14q-31 6 -50.5 22t-19.5 46v110h150v50q0 88 27.5 159.5t79 121t125 76.5t166.5 27q37 0 69 -5t65 -14l-5 -136q-2 -30 -27 -40t-54 -10q-43 0 -76 -9t-56 -30.5t-35 -58t-12 -90.5v-41h388v112q0 81 21.5 145.5t62.5 109.5t101 69t137 24q29 0 51.5 -2.5
t45.5 -10.5v-148q0 -20 -16.5 -27.5t-39.5 -7.5q-53 0 -74.5 -34.5t-21.5 -116.5v-113h646v-1025h-276v833h-361v-833h-276v833h-379v-833h-276zM1320 1381h608v-172h-608v172z" />
    <glyph glyph-name="f_f_ibreve.liga" unicode="ff&#x12d;" horiz-adv-x="1879" 
d="M189 0v833l-80 14q-31 6 -50.5 22t-19.5 46v110h150v50q0 88 27.5 159.5t79 121t125 76.5t166.5 27q37 0 69 -5t65 -14l-5 -136q-2 -30 -27 -40t-54 -10q-43 0 -76 -9t-56 -30.5t-35 -58t-12 -90.5v-41h388v112q0 81 21.5 145.5t62.5 109.5t101 69t137 24q29 0 51.5 -2.5
t45.5 -10.5v-148q0 -20 -16.5 -27.5t-39.5 -7.5q-53 0 -74.5 -34.5t-21.5 -116.5v-113h646v-1025h-276v833h-361v-833h-276v833h-379v-833h-276zM1624 1160q-89 0 -149.5 23t-97 63t-52 93t-15.5 112h193q0 -29 5 -51.5t18.5 -38t37 -23.5t60.5 -8t60.5 8t37 23.5t18.5 38
t5 51.5h193q0 -59 -15.5 -112t-52 -93t-97 -63t-149.5 -23z" />
    <glyph glyph-name="f_f_iogonek.liga" unicode="ff&#x12f;" horiz-adv-x="1879" 
d="M189 0v833l-80 14q-31 6 -50.5 22t-19.5 46v110h150v50q0 88 27.5 159.5t79 121t125 76.5t166.5 27q37 0 69 -5t65 -14l-5 -136q-2 -30 -27 -40t-54 -10q-43 0 -76 -9t-56 -30.5t-35 -58t-12 -90.5v-41h388v25q0 94 31.5 175.5t97 142t166 95t238.5 34.5q43 0 89 -4.5
t79 -13.5l-9 -141q-2 -24 -25 -30t-53 -6q-100 0 -167 -16.5t-107 -49.5t-56.5 -82t-16.5 -113v-16h646v-1025h-28q-20 -11 -38 -24.5t-31.5 -30t-22 -35t-8.5 -39.5q0 -28 16.5 -44t46.5 -16q17 0 28 1.5t17.5 4t11.5 4t10 1.5q19 0 26 -17l41 -100q-34 -22 -84.5 -36.5
t-107.5 -14.5q-103 0 -156.5 41.5t-53.5 106.5q0 54 35.5 105t106.5 93h-85v833h-361v-833h-276v833h-379v-833h-276z" />
    <glyph glyph-name="f_f_dotlessi.liga" unicode="ff&#x131;" horiz-adv-x="1880" 
d="M189 0v833l-80 14q-31 6 -50.5 22t-19.5 46v110h150v50q0 88 27.5 159.5t79 121t125 76.5t166.5 27q37 0 69 -5t65 -14l-5 -136q-2 -30 -27 -40t-54 -10q-43 0 -76 -9t-56 -30.5t-35 -58t-12 -90.5v-41h388v112q0 81 21.5 145.5t62.5 109.5t101 69t137 24q29 0 51.5 -2.5
t45.5 -10.5v-148q0 -20 -16.5 -27.5t-39.5 -7.5q-53 0 -74.5 -34.5t-21.5 -116.5v-113h646v-1025h-276v833h-361v-833h-276v833h-379v-833h-276z" />
    <glyph glyph-name="f_j.liga" unicode="fj" horiz-adv-x="1225" 
d="M189 0v833l-80 14q-31 6 -50.5 22t-19.5 46v110h150v25q0 94 31.5 175.5t97 142t166 95t238.5 34.5q43 0 89 -4.5t79 -13.5l-9 -141q-1 -12 -7.5 -19t-17.5 -11t-24.5 -5t-28.5 -1q-100 0 -167 -16.5t-107 -49.5t-56.5 -82t-16.5 -113v-16h646v-1045q0 -70 -18 -131.5
t-58.5 -107.5t-106 -73t-161.5 -27q-36 0 -67.5 5t-64.5 14l10 146q2 20 14.5 28t49.5 8t61 6.5t38.5 22.5t20.5 42.5t6 66.5v853h-361v-833h-276z" />
    <glyph glyph-name="f_f_j.liga" unicode="ffj" horiz-adv-x="1880" 
d="M189 0v833l-80 14q-31 6 -50.5 22t-19.5 46v110h150v50q0 88 27.5 159.5t79 121t125 76.5t166.5 27q37 0 69 -5t65 -14l-5 -136q-2 -30 -27 -40t-54 -10q-43 0 -76 -9t-56 -30.5t-35 -58t-12 -90.5v-41h388v25q0 94 31.5 175.5t97 142t166 95t238.5 34.5q43 0 89 -4.5
t79 -13.5l-9 -141q-2 -24 -25 -30t-53 -6q-100 0 -167 -16.5t-107 -49.5t-56.5 -82t-16.5 -113v-16h646v-1045q0 -70 -18 -131.5t-58.5 -107.5t-106 -73t-161.5 -27q-36 0 -67.5 5t-63.5 14l9 146q2 20 14.5 28t49.5 8t61 6.5t38.5 22.5t20.5 42.5t6 66.5v853h-361v-833
h-276v833h-379v-833h-276z" />
    <glyph glyph-name="f_k.liga" unicode="fk" horiz-adv-x="1832" 
d="M189 0v833l-80 14q-31 6 -50.5 22t-19.5 46v110h150v63q0 93 29.5 171.5t93 135.5t163.5 89t242 32q52 0 97.5 -4t93 -8.5t101.5 -8.5t123 -4v-846h46q26 0 41 7.5t30 27.5l228 304q17 23 38.5 35t54.5 12h252l-296 -376q-35 -47 -81 -74q23 -16 40 -37t33 -47l319 -497
h-248q-32 0 -55 10.5t-38 37.5l-232 379q-14 24 -29 31t-45 7h-58v-465h-276v1310q-37 14 -77.5 22.5t-79.5 8.5q-59 0 -104.5 -19t-76.5 -53t-47 -80.5t-16 -100.5v-63h256v-192h-247v-833h-275z" />
    <glyph glyph-name="f_f_k.liga" unicode="ffk" horiz-adv-x="2488" 
d="M189 0v833l-80 14q-31 6 -50.5 22t-19.5 46v110h150v50q0 88 27.5 159.5t79 121t125 76.5t166.5 27q37 0 69 -5t65 -14l-5 -136q-2 -30 -27 -40t-54 -10q-43 0 -76 -9t-56 -30.5t-35 -58t-12 -90.5v-41h388v63q0 93 29.5 171.5t93 135.5t163.5 89t242 32q49 0 92.5 -3.5
t88.5 -8t95 -8.5t112 -5h27v-846h46q26 0 41 7.5t30 27.5l228 304q17 23 38.5 35t54.5 12h252l-296 -376q-35 -47 -81 -74q23 -16 40 -37t33 -47l319 -497h-248q-32 0 -55 10.5t-38 37.5l-232 379q-14 24 -29 31t-45 7h-58v-465h-276v1311q-37 14 -77 22t-79 8
q-59 0 -104.5 -19t-76.5 -53t-47 -80.5t-16 -100.5v-63h256v-192h-247v-833h-276v833h-379v-833h-276z" />
    <glyph glyph-name="f_t.liga" unicode="ft" horiz-adv-x="1434" 
d="M1135 833v-538q0 -43 21 -68t58 -25q20 0 34 4.5t24 10t18.5 10t17.5 4.5q12 0 20 -5.5t16 -18.5l83 -132q-57 -45 -129 -68t-149 -23q-70 0 -124 20.5t-91 58.5t-56 92t-19 122v556h-395v-833h-275v833l-80 14q-31 6 -50.5 22t-19.5 46v110h150v68q0 88 27.5 159.5
t78.5 121t125 76.5t167 27q36 0 68.5 -4.5t65.5 -13.5l-6 -136q-2 -31 -26.5 -40.5t-54.5 -9.5q-42 0 -75.5 -9t-56.5 -30.5t-35 -58t-12 -90.5v-60h418l58 269q11 45 61 45h143v-314h266v-192h-266z" />
    <glyph glyph-name="f_f_t.liga" unicode="fft" horiz-adv-x="2089" 
d="M189 0v833l-80 14q-31 6 -50.5 22t-19.5 46v110h150v50q0 88 27.5 159.5t79 121t125 76.5t166.5 27q37 0 69 -5t65 -14l-5 -136q-2 -30 -27 -40t-54 -10q-43 0 -76 -9t-56 -30.5t-35 -58t-12 -90.5v-41h388v68q0 88 27.5 159.5t79 121t125 76.5t166.5 27q37 0 69 -4.5
t65 -13.5l-5 -136q-1 -15 -8.5 -25t-18.5 -15.5t-25 -7.5t-29 -2q-43 0 -76 -9t-56 -30.5t-35 -58t-12 -90.5v-60h418l57 269q11 45 61 45h143v-314h267v-192h-267v-538q0 -43 21 -68t59 -25q20 0 33.5 4.5t24 10t19 10t17.5 4.5q12 0 20 -5.5t16 -18.5l83 -132
q-57 -45 -129 -68t-150 -23q-70 0 -124 20.5t-90.5 58.5t-55.5 92t-19 122v556h-395v-833h-276v833h-379v-833h-276z" />
    <glyph glyph-name="t_f.liga" unicode="tf" horiz-adv-x="1419" 
d="M882 0v833h-426v-538q0 -43 20.5 -68t58.5 -25q20 0 34 4.5t24 10t18.5 10t17.5 4.5q12 0 20 -5.5t16 -18.5l83 -132q-57 -45 -129 -68t-149 -23q-70 0 -124 20.5t-91 58.5t-56 92t-19 122v556h-97q-22 0 -37.5 14t-15.5 42v108l165 30l56 267q11 45 61 45h144v-314h426
v68q0 88 27.5 159.5t78.5 121t125 76.5t167 27q36 0 68.5 -4.5t65.5 -13.5l-6 -136q-2 -31 -26.5 -40.5t-54.5 -9.5q-42 0 -75.5 -9t-56.5 -30.5t-35 -58t-12 -90.5v-60h256v-192h-247v-833h-275z" />
    <glyph glyph-name="t_iogonek.liga" unicode="t&#x12f;" horiz-adv-x="1312" 
d="M1049 1157q-35 0 -65.5 13t-53.5 36t-36.5 53t-13.5 65t13.5 65.5t36.5 53.5t53.5 36t65.5 13q36 0 67.5 -13t55 -36t37.5 -53.5t14 -65.5t-14 -65t-37.5 -53t-55 -36t-67.5 -13zM1262 -295q-34 -22 -84.5 -36.5t-107.5 -14.5q-103 0 -156.5 41.5t-53.5 106.5
q0 54 35.5 105t106.5 93h-88v833h-457v-538q0 -43 21 -68t58 -25q20 0 34 4.5t24 10t18.5 10t17.5 4.5q12 0 20 -5.5t16 -18.5l83 -132q-57 -45 -129 -68t-149 -23q-70 0 -124 20.5t-91 58.5t-56 92t-19 122v556h-97q-22 0 -37 14t-15 42v108l164 31l57 266q11 45 61 45h143
v-314h732v-1025h-24q-20 -11 -38 -24.5t-31.5 -30t-22 -35t-8.5 -39.5q0 -28 16 -44t47 -16q17 0 28 1.5t17.5 4t11.5 4t10 1.5q20 0 25 -17z" />
    <glyph glyph-name="t_dotlessi.liga" unicode="t&#x131;" horiz-adv-x="1311" 
d="M1188 0h-275v833h-457v-538q0 -43 20.5 -68t58.5 -25q20 0 34 4.5t24 10t18.5 10t17.5 4.5q12 0 20 -5.5t16 -18.5l83 -132q-57 -45 -129 -68t-149 -23q-70 0 -124 20.5t-91 58.5t-56 92t-19 122v556h-97q-22 0 -37.5 14t-15.5 42v108l165 30l56 267q11 45 61 45h144
v-314h732v-1025z" />
    <glyph glyph-name="t_t.liga" unicode="tt" horiz-adv-x="1423" 
d="M470 -16q-70 0 -124 20.5t-91 58.5t-56 92t-19 122v556h-97q-22 0 -37.5 14t-15.5 42v108l165 30l56 267q11 45 61 45h144v-314h406l58 269q11 45 61 45h143v-314h266v-192h-266v-538q0 -43 21 -68t58 -25q20 0 34 4.5t24 10t18.5 10t17.5 4.5q12 0 20 -5.5t16 -18.5
l83 -132q-57 -45 -129 -68t-149 -23q-70 0 -124 20.5t-91 58.5t-56 92t-19 122v556h-392v-538q0 -43 20.5 -68t58.5 -25q20 0 34 4.5t24 10t18.5 10t17.5 4.5q12 0 20 -5.5t16 -18.5l83 -132q-57 -45 -129 -68t-149 -23z" />
    <glyph glyph-name="t_t_f.liga" unicode="ttf" horiz-adv-x="2087" 
d="M2076 1323q-2 -31 -26.5 -40.5t-54.5 -9.5q-42 0 -75.5 -9t-56 -30.5t-34.5 -58t-12 -90.5v-60h255v-192h-247v-833h-275v833h-426v-538q0 -43 21 -68t58 -25q20 0 34 4.5t24 10t18.5 10t17.5 4.5q12 0 20 -5.5t16 -18.5l83 -132q-57 -45 -129 -68t-149 -23
q-70 0 -124 20.5t-91 58.5t-56 92t-19 122v556h-392v-538q0 -43 20.5 -68t58.5 -25q20 0 34 4.5t24 10t18.5 10t17.5 4.5q12 0 20 -5.5t16 -18.5l83 -132q-57 -45 -129 -68t-149 -23q-70 0 -124 20.5t-91 58.5t-56 92t-19 122v556h-97q-22 0 -37.5 14t-15.5 42v108l165 30
l56 267q11 45 61 45h144v-314h407l57 269q11 45 61 45h143v-314h426v68q0 88 27.5 159.5t78.5 121t125 76.5t167 27q36 0 68.5 -4.5t65.5 -13.5z" />
    <glyph glyph-name="t_t_iogonek.liga" unicode="tt&#x12f;" horiz-adv-x="1960" 
d="M1697 1157q-34 0 -64.5 13t-53.5 36t-36.5 53t-13.5 65t13.5 65.5t36.5 53.5t53.5 36t64.5 13q36 0 67.5 -13t55 -36t37.5 -53.5t14 -65.5t-14 -65t-37.5 -53t-55 -36t-67.5 -13zM1913 -295q-34 -22 -84.5 -36.5t-107.5 -14.5q-103 0 -156.5 41.5t-53.5 106.5
q0 54 35.5 105t106.5 93h-91v833h-437v-538q0 -43 21 -68t58 -25q20 0 34 4.5t24.5 10t18.5 10t17 4.5q13 0 20.5 -5.5t15.5 -18.5l84 -132q-57 -45 -129 -68t-150 -23q-70 0 -124 20.5t-90.5 58.5t-55.5 92t-19 122v556h-393v-538q0 -43 21 -68t58 -25q20 0 34 4.5t24 10
t18.5 10t17.5 4.5q12 0 20 -5.5t16 -18.5l83 -132q-57 -45 -129 -68t-149 -23q-70 0 -124 20.5t-91 58.5t-56 92t-19 122v556h-97q-22 0 -37 14t-15 42v108l164 31l57 266q11 45 61 45h143v-314h407l57 269q11 45 61 45h143v-314h713v-1025h-22q-20 -11 -38 -24.5t-31.5 -30
t-22 -35t-8.5 -39.5q0 -28 16.5 -44t46.5 -16q17 0 28 1.5t17.5 4t11.5 4t10 1.5q19 0 26 -17z" />
    <glyph glyph-name="t_t_dotlessi.liga" unicode="tt&#x131;" horiz-adv-x="1959" 
d="M1836 0h-275v833h-437v-538q0 -43 21 -68t58 -25q20 0 34 4.5t24 10t18.5 10t17.5 4.5q12 0 20 -5.5t16 -18.5l83 -132q-57 -45 -129 -68t-149 -23q-70 0 -124 20.5t-91 58.5t-56 92t-19 122v556h-392v-538q0 -43 20.5 -68t58.5 -25q20 0 34 4.5t24 10t18.5 10t17.5 4.5
q12 0 20 -5.5t16 -18.5l83 -132q-57 -45 -129 -68t-149 -23q-70 0 -124 20.5t-91 58.5t-56 92t-19 122v556h-97q-22 0 -37.5 14t-15.5 42v108l165 30l56 267q11 45 61 45h144v-314h407l57 269q11 45 61 45h143v-314h712v-1025z" />
    <glyph glyph-name="f_uni01D0.liga" unicode="f&#x1d0;" horiz-adv-x="1224" 
d="M189 0v833l-80 14q-31 6 -50.5 22t-19.5 46v110h150v112q0 81 21.5 145.5t62.5 109.5t101 69t137 24q29 0 51.5 -2.5t45.5 -10.5v-148q0 -20 -16.5 -27.5t-39.5 -7.5q-53 0 -74.5 -34.5t-21.5 -116.5v-113h646v-1025h-276v833h-361v-833h-276zM636 1451h190
q17 0 33.5 -4.5t21.5 -13.5l69 -102q6 -10 12.5 -21.5t11.5 -23.5q5 12 10.5 23.5t12.5 21.5l70 102q5 8 21.5 13t32.5 5h184l-205 -283h-259z" />
    <glyph glyph-name="f_uni0209.liga" unicode="f&#x209;" horiz-adv-x="1224" 
d="M546 1485q47 0 79.5 -3.5t56 -12t40 -23t31.5 -35.5l177 -244h-130q-31 0 -50.5 8.5t-39.5 29.5l-79 83q-53 -1 -87 -8.5t-53.5 -25t-27 -45.5t-7.5 -71v-113h646v-1025h-276v833h-361v-833h-276v833l-80 14q-31 6 -50.5 22t-19.5 46v110h150v112q0 83 26 147.5t73.5 109
t113 68t144.5 23.5zM996 1467q43 0 65.5 -14t36.5 -42l122 -244h-113q-31 0 -51.5 7.5t-38.5 30.5l-199 262h178z" />
    <glyph glyph-name="f_uni020B.liga" unicode="f&#x20b;" horiz-adv-x="1224" 
d="M189 0v833l-80 14q-31 6 -50.5 22t-19.5 46v110h150v112q0 81 21.5 145.5t62.5 109.5t101 69t137 24q29 0 51.5 -2.5t45.5 -10.5v-148q0 -20 -16.5 -27.5t-39.5 -7.5q-53 0 -74.5 -34.5t-21.5 -116.5v-113h646v-1025h-276v833h-361v-833h-276zM972 1461q89 0 149.5 -23.5
t97 -63t52 -92.5t15.5 -112h-193q0 29 -5 51.5t-18.5 38t-37 23.5t-60.5 8t-60.5 -8t-37 -23.5t-18.5 -38t-5 -51.5h-193q0 59 15.5 112t52 92.5t97 63t149.5 23.5z" />
    <glyph glyph-name="f_uni1E2F.liga" unicode="f&#x1e2f;" horiz-adv-x="1224" 
d="M929 1213q0 -27 -10.5 -50t-29 -40.5t-43 -27.5t-51.5 -10q-26 0 -49.5 10t-41.5 27.5t-28.5 40.5t-10.5 50t10.5 51t28.5 42t41.5 28.5t49.5 10.5q27 0 51.5 -10.5t43 -28.5t29 -42t10.5 -51zM1283 1213q0 -27 -10.5 -50t-28.5 -40.5t-42 -27.5t-51 -10t-51 10t-42 27.5
t-28.5 40.5t-10.5 50t10.5 51t28.5 42t42 28.5t51 10.5t51 -10.5t42 -28.5t28.5 -42t10.5 -51zM1350 1605l-226 -207q-23 -20 -48 -29.5t-60 -9.5h-147l112 189q17 27 38 42t64 15h267zM189 0v833l-80 14q-31 6 -50.5 22t-19.5 46v110h150v112q0 81 21.5 145.5t62.5 109.5
t101 69t137 24q29 0 51.5 -2.5t45.5 -10.5v-148q0 -20 -16.5 -27.5t-39.5 -7.5q-53 0 -74.5 -34.5t-21.5 -116.5v-113h646v-1025h-276v833h-361v-833h-276z" />
    <glyph glyph-name="f_f_uni01D0.liga" unicode="ff&#x1d0;" horiz-adv-x="1879" 
d="M1481 0v833h-361v-833h-276v833h-379v-833h-276v833l-80 14q-31 6 -50.5 22t-19.5 46v110h150v50q0 88 27.5 159.5t79 121t125 76.5t166.5 27q37 0 69 -5t65 -14l-5 -136q-2 -30 -27 -40t-54 -10q-43 0 -76 -9t-56 -30.5t-35 -58t-12 -90.5v-41h388v112q0 81 21.5 145.5
t62.5 109.5t101 69t137 24q29 0 51.5 -2.5t45.5 -10.5v-148q0 -20 -16.5 -27.5t-39.5 -7.5q-53 0 -74.5 -34.5t-21.5 -116.5v-113h646v-1025h-276zM1284 1451h190q17 0 33.5 -4.5t21.5 -13.5l69 -102q6 -10 12 -21t12 -23q9 24 23 44l69 102q6 8 22.5 13t32.5 5h184
l-205 -283h-259z" />
    <glyph glyph-name="f_f_uni0209.liga" unicode="ff&#x209;" horiz-adv-x="1879" 
d="M189 0v833l-80 14q-31 6 -50.5 22t-19.5 46v110h150v50q0 88 27.5 159.5t79 121t125 76.5t166.5 27q37 0 69 -5t65 -14l-5 -136q-2 -30 -27 -40t-54 -10q-43 0 -76 -9t-56 -30.5t-35 -58t-12 -90.5v-41h388v112q0 81 23.5 145.5t69.5 109.5t115 69t159 24q47 0 79.5 -3.5
t56 -12t40 -23t31.5 -35.5l177 -244h-130q-31 0 -50 9t-40 29l-79 84q-53 -2 -88.5 -9.5t-57 -25t-30.5 -45.5t-9 -71v-113h646v-1025h-276v833h-361v-833h-276v833h-379v-833h-276zM1663 1467q43 0 65 -14t36 -42l122 -244h-112q-32 0 -52.5 7.5t-37.5 30.5l-200 262h179z
" />
    <glyph glyph-name="f_f_uni020B.liga" unicode="ff&#x20b;" horiz-adv-x="1879" 
d="M1481 0v833h-361v-833h-276v833h-379v-833h-276v833l-80 14q-31 6 -50.5 22t-19.5 46v110h150v50q0 88 27.5 159.5t79 121t125 76.5t166.5 27q37 0 69 -5t65 -14l-5 -136q-2 -30 -27 -40t-54 -10q-43 0 -76 -9t-56 -30.5t-35 -58t-12 -90.5v-41h388v112q0 81 21.5 145.5
t62.5 109.5t101 69t137 24q29 0 51.5 -2.5t45.5 -10.5v-148q0 -20 -16.5 -27.5t-39.5 -7.5q-53 0 -74.5 -34.5t-21.5 -116.5v-113h646v-1025h-276zM1611 1461q89 0 149 -23.5t96.5 -63t52 -92.5t15.5 -112h-192q0 29 -5.5 51.5t-19 38t-37 23.5t-59.5 8q-37 0 -60.5 -8
t-37 -23.5t-19 -38t-5.5 -51.5h-192q0 59 15.5 112t52 92.5t97 63t149.5 23.5z" />
    <glyph glyph-name="f_f_uni1E2F.liga" unicode="ff&#x1e2f;" horiz-adv-x="1879" 
d="M1481 0v833h-361v-833h-276v833h-379v-833h-276v833l-80 14q-31 6 -50.5 22t-19.5 46v110h150v50q0 88 27.5 159.5t79 121t125 76.5t166.5 27q37 0 69 -5t65 -14l-5 -136q-2 -30 -27 -40t-54 -10q-43 0 -76 -9t-56 -30.5t-35 -58t-12 -90.5v-41h388v112q0 81 21.5 145.5
t62.5 109.5t101 69t137 24q29 0 51.5 -2.5t45.5 -10.5v-148q0 -20 -16.5 -27.5t-39.5 -7.5q-53 0 -74.5 -34.5t-21.5 -116.5v-113h646v-1025h-276zM2003 1605l-227 -207q-23 -20 -48 -29.5t-60 -9.5h-147l113 189q16 27 37 42t65 15h267zM1935 1213q0 -27 -10.5 -50
t-28.5 -40.5t-42 -27.5t-51 -10t-51 10t-42 27.5t-28.5 40.5t-10.5 50t10.5 51t28.5 42t42 28.5t51 10.5t51 -10.5t42 -28.5t28.5 -42t10.5 -51zM1581 1213q0 -27 -10.5 -50t-29 -40.5t-43 -27.5t-51.5 -10q-26 0 -49.5 10t-41.5 27.5t-28.5 40.5t-10.5 50t10.5 51t28.5 42
t41.5 28.5t49.5 10.5q27 0 51.5 -10.5t43 -28.5t29 -42t10.5 -51z" />
    <glyph glyph-name="f_uni0237.liga" unicode="f&#x237;" horiz-adv-x="1225" 
d="M189 0v833l-80 14q-31 6 -50.5 22t-19.5 46v110h150v112q0 81 21.5 145.5t62.5 109.5t101 69t137 24q29 0 51.5 -2.5t45.5 -10.5v-148q0 -20 -16.5 -27.5t-39.5 -7.5q-53 0 -74.5 -34.5t-21.5 -116.5v-113h646v-1045q0 -70 -18 -131.5t-58.5 -107.5t-106 -73t-161.5 -27
q-36 0 -67.5 5t-64.5 14l10 146q2 20 14.5 28t49.5 8t61 6.5t38.5 22.5t20.5 42.5t6 66.5v853h-361v-833h-276z" />
    <glyph glyph-name="f_f_uni0237.liga" unicode="ff&#x237;" horiz-adv-x="1880" 
d="M1757 -20q0 -70 -18 -131.5t-58.5 -107.5t-106 -73t-161.5 -27q-36 0 -67.5 5t-63.5 14l9 146q2 20 14.5 28t49.5 8t61 6.5t38.5 22.5t20.5 42.5t6 66.5v853h-361v-833h-276v833h-379v-833h-276v833l-80 14q-31 6 -50.5 22t-19.5 46v110h150v50q0 88 27.5 159.5t79 121
t125 76.5t166.5 27q37 0 69 -5t65 -14l-5 -136q-2 -30 -27 -40t-54 -10q-43 0 -76 -9t-56 -30.5t-35 -58t-12 -90.5v-41h388v112q0 81 21.5 145.5t62.5 109.5t101 69t137 24q29 0 51.5 -2.5t45.5 -10.5v-148q0 -20 -16.5 -27.5t-39.5 -7.5q-53 0 -74.5 -34.5t-21.5 -116.5
v-113h646v-1045v0z" />
    <glyph glyph-name="f_jcircumflex.liga" unicode="f&#x135;" horiz-adv-x="1224" 
d="M189 0v833l-80 14q-31 6 -50.5 22t-19.5 46v110h150v112q0 81 21.5 145.5t62.5 109.5t101 69t137 24q29 0 51.5 -2.5t45.5 -10.5v-148q0 -20 -16.5 -27.5t-39.5 -7.5q-53 0 -74.5 -34.5t-21.5 -116.5v-113h646v-1045q0 -70 -18 -131.5t-58.5 -107.5t-106 -73t-161.5 -27
q-36 0 -67.5 5t-64.5 14l10 146q2 20 14.5 28t49.5 8t61 6.5t38.5 22.5t20.5 42.5t6 66.5v853h-361v-833h-276zM1327 1168h-184q-16 0 -31 5.5t-31 20.5l-88 95q-5 5 -11 11.5t-11 14.5q-12 -15 -23 -26l-90 -95q-28 -26 -62 -26h-191l232 283h258z" />
    <glyph glyph-name="f_lcaron.liga" unicode="f&#x13e;" horiz-adv-x="1242" 
d="M189 0v833l-80 14q-31 6 -50.5 22t-19.5 46v110h150v40q0 81 26 156t79.5 133t136 93t195.5 35q94 0 177.5 -6.5t168.5 -6.5h155v-1469h-274v1282q-52 2 -101.5 4.5t-81.5 2.5q-104 0 -159 -57.5t-55 -166.5v-40h234v-192h-225v-833h-276zM1471 1493q30 0 37 -13.5
t7 -25.5q0 -9 -3.5 -24t-14.5 -44.5t-30.5 -77t-52.5 -120.5q-15 -30 -37.5 -39t-57.5 -9h-98l64 353h186z" />
    <glyph glyph-name="f_uni013C.liga" unicode="f&#x13c;" horiz-adv-x="1243" 
d="M189 0v833l-80 14q-31 6 -50.5 22t-19.5 46v110h150v40q0 81 26 156t79.5 133t136 93t195.5 35q94 0 177.5 -6.5t168.5 -6.5h155v-1469h-274v1282q-52 2 -101.5 4.5t-81.5 2.5q-104 0 -159 -57.5t-55 -166.5v-40h234v-192h-225v-833h-276zM1068 -88q30 0 37 -13.5
t7 -25.5q0 -9 -2 -24.5t-9.5 -40.5t-21.5 -61.5t-38 -86.5q-15 -31 -37.5 -39.5t-57.5 -8.5h-98l51 300h169z" />
    <glyph glyph-name="f_uni021B.liga" unicode="f&#x21b;" horiz-adv-x="1434" 
d="M1135 833v-538q0 -43 21 -68t58 -25q20 0 34 4.5t24 10t18.5 10t17.5 4.5q12 0 20 -5.5t16 -18.5l83 -132q-57 -45 -129 -68t-149 -23q-70 0 -124 20.5t-91 58.5t-56 92t-19 122v556h-395v-833h-275v833l-80 14q-31 6 -50.5 22t-19.5 46v110h150v68q0 88 27.5 159.5
t78.5 121t125 76.5t167 27q36 0 68.5 -4.5t65.5 -13.5l-6 -136q-2 -31 -26.5 -40.5t-54.5 -9.5q-42 0 -75.5 -9t-56.5 -30.5t-35 -58t-12 -90.5v-60h418l58 269q11 45 61 45h143v-314h266v-192h-266zM1201 -88q30 0 37 -13.5t7 -25.5q0 -9 -2 -24.5t-9.5 -40.5t-21.5 -61.5
t-38 -86.5q-15 -31 -37.5 -39.5t-57.5 -8.5h-98l51 300h169z" />
    <glyph glyph-name="f_tcaron.liga" unicode="f&#x165;" horiz-adv-x="1434" 
d="M1135 833v-538q0 -43 21 -68t58 -25q20 0 34 4.5t24 10t18.5 10t17.5 4.5q12 0 20 -5.5t16 -18.5l83 -132q-57 -45 -129 -68t-149 -23q-70 0 -124 20.5t-91 58.5t-56 92t-19 122v556h-395v-833h-275v833l-80 14q-31 6 -50.5 22t-19.5 46v110h150v68q0 88 27.5 159.5
t78.5 121t125 76.5t167 27q36 0 68.5 -4.5t65.5 -13.5l-6 -136q-2 -31 -26.5 -40.5t-54.5 -9.5q-42 0 -75.5 -9t-56.5 -30.5t-35 -58t-12 -90.5v-60h418l58 269q11 45 61 45h143v-314h266v-192h-266zM1530 1493q30 0 37 -13.5t7 -25.5q0 -9 -3.5 -24t-14.5 -44.5t-30.5 -77
t-52.5 -120.5q-15 -30 -37.5 -39t-57.5 -9h-98l64 353h186z" />
    <glyph glyph-name="f_uni1ECB.liga" unicode="f&#x1ecb;" horiz-adv-x="1225" 
d="M189 0v833l-80 14q-31 6 -50.5 22t-19.5 46v110h150v25q0 94 31.5 175.5t97 142t166 95t238.5 34.5q43 0 89 -4.5t79 -13.5l-9 -141q-1 -12 -7.5 -19t-17.5 -11t-24.5 -5t-28.5 -1q-100 0 -167 -16.5t-107 -49.5t-56.5 -82t-16.5 -113v-16h646v-1025h-276v833h-361v-833
h-276zM1115 -235q0 -30 -12 -56.5t-33 -46.5t-48.5 -31.5t-58.5 -11.5q-30 0 -57 11.5t-47 31.5t-32 46.5t-12 56.5q0 31 12 58t32 47t47 31.5t57 11.5q31 0 58.5 -11.5t48.5 -31.5t33 -47t12 -58z" />
    <glyph glyph-name="f_uni1E2D.liga" unicode="f&#x1e2d;" horiz-adv-x="1225" 
d="M189 0v833l-80 14q-31 6 -50.5 22t-19.5 46v110h150v25q0 94 31.5 175.5t97 142t166 95t238.5 34.5q43 0 89 -4.5t79 -13.5l-9 -141q-1 -12 -7.5 -19t-17.5 -11t-24.5 -5t-28.5 -1q-100 0 -167 -16.5t-107 -49.5t-56.5 -82t-16.5 -113v-16h646v-1025h-276v833h-361v-833
h-276zM1068 -142q27 0 43 14.5t16 56.5h168q0 -59 -16.5 -107t-45.5 -81.5t-69 -52t-86 -18.5q-36 0 -67.5 12.5t-59 27t-50.5 27t-41 12.5q-27 0 -42.5 -15.5t-15.5 -57.5h-170q0 59 16.5 107t46 82t69 52.5t85.5 18.5q37 0 69 -12t59 -27t49.5 -27t41.5 -12z" />
    <glyph glyph-name="f_uni0268.liga" unicode="f&#x268;" horiz-adv-x="1268" 
d="M826 576v257h-361v-833h-276v833l-80 14q-31 6 -50.5 22t-19.5 46v110h150v25q0 94 31.5 175.5t97 142t166 95t238.5 34.5q43 0 89 -4.5t79 -13.5l-9 -141q-1 -12 -7.5 -19t-17.5 -11t-24.5 -5t-28.5 -1q-100 0 -167 -16.5t-107 -49.5t-56.5 -82t-16.5 -113v-16h646v-449
h137v-191h-137v-385h-276v385h-129v191h129z" />
    <glyph glyph-name="f_iacute.liga" unicode="f&#xed;" horiz-adv-x="1224" 
d="M189 0v833l-80 14q-31 6 -50.5 22t-19.5 46v110h150v112q0 81 21.5 145.5t62.5 109.5t101 69t137 24q29 0 51.5 -2.5t45.5 -10.5v-148q0 -20 -16.5 -27.5t-39.5 -7.5q-53 0 -74.5 -34.5t-21.5 -116.5v-113h646v-1025h-276v833h-361v-833h-276zM1332 1467l-253 -262
q-20 -21 -39.5 -29.5t-50.5 -8.5h-166l140 244q15 28 36.5 42t65.5 14h267z" />
    <glyph glyph-name="f_uni1EC9.liga" unicode="f&#x1ec9;" horiz-adv-x="1224" 
d="M189 0v833l-80 14q-31 6 -50.5 22t-19.5 46v110h150v112q0 81 21.5 145.5t62.5 109.5t101 69t137 24q29 0 51.5 -2.5t45.5 -10.5v-148q0 -20 -16.5 -27.5t-39.5 -7.5q-53 0 -74.5 -34.5t-21.5 -116.5v-113h646v-1025h-276v833h-361v-833h-276zM733 1454q33 25 94 41
t130 16q54 0 94.5 -11t67 -30t39.5 -45t13 -57q0 -54 -35.5 -94.5t-88.5 -65.5l-24 -88h-131v157q51 6 68.5 24t17.5 38t-13.5 32.5t-42.5 12.5q-18 0 -33 -4t-27.5 -8.5t-23.5 -8.5t-20 -4q-13 0 -20 6.5t-15 17.5z" />
    <glyph glyph-name="f_f_uni1ECB.liga" unicode="ff&#x1ecb;" horiz-adv-x="1880" 
d="M189 0v833l-80 14q-31 6 -50.5 22t-19.5 46v110h150v50q0 88 27.5 159.5t79 121t125 76.5t166.5 27q37 0 69 -5t65 -14l-5 -136q-2 -30 -27 -40t-54 -10q-43 0 -76 -9t-56 -30.5t-35 -58t-12 -90.5v-41h388v25q0 94 31.5 175.5t97 142t166 95t238.5 34.5q43 0 89 -4.5
t79 -13.5l-9 -141q-2 -24 -25 -30t-53 -6q-100 0 -167 -16.5t-107 -49.5t-56.5 -82t-16.5 -113v-16h646v-1025h-276v833h-361v-833h-276v833h-379v-833h-276zM1775 -235q0 -30 -12 -56.5t-33 -46.5t-48.5 -31.5t-58.5 -11.5q-30 0 -57 11.5t-47 31.5t-32 46.5t-12 56.5
q0 31 12 58t32 47t47 31.5t57 11.5q31 0 58.5 -11.5t48.5 -31.5t33 -47t12 -58z" />
    <glyph glyph-name="f_f_uni1E2D.liga" unicode="ff&#x1e2d;" horiz-adv-x="1880" 
d="M189 0v833l-80 14q-31 6 -50.5 22t-19.5 46v110h150v50q0 88 27.5 159.5t79 121t125 76.5t166.5 27q37 0 69 -5t65 -14l-5 -136q-2 -30 -27 -40t-54 -10q-43 0 -76 -9t-56 -30.5t-35 -58t-12 -90.5v-41h388v25q0 94 31.5 175.5t97 142t166 95t238.5 34.5q43 0 89 -4.5
t79 -13.5l-9 -141q-2 -24 -25 -30t-53 -6q-100 0 -167 -16.5t-107 -49.5t-56.5 -82t-16.5 -113v-16h646v-1025h-276v833h-361v-833h-276v833h-379v-833h-276zM1727 -142q27 0 43 14.5t16 56.5h168q0 -59 -16.5 -107t-45.5 -81.5t-69 -52t-86 -18.5q-36 0 -67.5 12.5t-59 27
t-50.5 27t-41 12.5q-27 0 -42.5 -15.5t-15.5 -57.5h-170q0 59 16.5 107t46 82t69 52.5t85.5 18.5q37 0 69 -12t59 -27t49.5 -27t41.5 -12z" />
    <glyph glyph-name="f_f_uni0268.liga" unicode="ff&#x268;" horiz-adv-x="1927" 
d="M1481 576v257h-361v-833h-276v833h-379v-833h-276v833l-80 14q-31 6 -50.5 22t-19.5 46v110h150v50q0 88 27.5 159.5t79 121t125 76.5t166.5 27q37 0 69 -5t65 -14l-5 -136q-2 -30 -27 -40t-54 -10q-43 0 -76 -9t-56 -30.5t-35 -58t-12 -90.5v-41h388v25q0 94 31.5 175.5
t97 142t166 95t238.5 34.5q43 0 89 -4.5t79 -13.5l-9 -141q-2 -24 -25 -30t-53 -6q-100 0 -167 -16.5t-107 -49.5t-56.5 -82t-16.5 -113v-16h646v-449h140v-191h-140v-385h-276v385h-126v191h126z" />
    <glyph glyph-name="f_f_iacute.liga" unicode="ff&#xed;" horiz-adv-x="1879" 
d="M189 0v833l-80 14q-31 6 -50.5 22t-19.5 46v110h150v50q0 88 27.5 159.5t79 121t125 76.5t166.5 27q37 0 69 -5t65 -14l-5 -136q-2 -30 -27 -40t-54 -10q-43 0 -76 -9t-56 -30.5t-35 -58t-12 -90.5v-41h388v112q0 81 21.5 145.5t62.5 109.5t101 69t137 24q29 0 51.5 -2.5
t45.5 -10.5v-148q0 -20 -16.5 -27.5t-39.5 -7.5q-53 0 -74.5 -34.5t-21.5 -116.5v-113h646v-1025h-276v833h-361v-833h-276v833h-379v-833h-276zM1992 1467l-253 -262q-20 -21 -39.5 -29.5t-50.5 -8.5h-166l140 244q15 28 36.5 42t65.5 14h267z" />
    <glyph glyph-name="f_f_uni1EC9.liga" unicode="ff&#x1ec9;" horiz-adv-x="1871" 
d="M189 0v833l-80 14q-31 6 -50.5 22t-19.5 46v110h150v50q0 88 27.5 159.5t79 121t125 76.5t166.5 27q37 0 69 -5t65 -14l-5 -136q-2 -30 -27 -40t-54 -10q-43 0 -76 -9t-56 -30.5t-35 -58t-12 -90.5v-41h388v112q0 81 21.5 145.5t62.5 109.5t101 69t137 24q29 0 51.5 -2.5
t45.5 -10.5v-148q0 -20 -16.5 -27.5t-39.5 -7.5q-53 0 -74.5 -34.5t-21.5 -116.5v-113h646v-1025h-276v833h-361v-833h-276v833h-379v-833h-276zM1392 1454q33 25 94 41t130 16q54 0 94.5 -11t67 -30t39.5 -45t13 -57q0 -54 -35.5 -94.5t-88.5 -65.5l-24 -88h-131v157
q51 6 68.5 24t17.5 38t-13.5 32.5t-42.5 12.5q-18 0 -33 -4t-27.5 -8.5t-23.5 -8.5t-20 -4q-13 0 -20 6.5t-15 17.5z" />
    <glyph glyph-name="f_lacute.liga" unicode="f&#x13a;" horiz-adv-x="1243" 
d="M189 0v833l-80 14q-31 6 -50.5 22t-19.5 46v110h150v40q0 81 26 156t79.5 133t136 93t195.5 35q94 0 177.5 -6.5t168.5 -6.5h155v-1469h-274v1282q-52 2 -101.5 4.5t-81.5 2.5q-104 0 -159 -57.5t-55 -166.5v-40h234v-192h-225v-833h-276zM1429 1864l-323 -286
q-11 -9 -21 -14.5t-20.5 -8.5t-23 -4t-27.5 -1h-200l200 271q11 15 21.5 23.5t23 13t28.5 5.5t37 1h305z" />
    <glyph glyph-name="t_i.liga" unicode="ti" horiz-adv-x="1310" 
d="M1188 0h-275v833h-457v-538q0 -43 20.5 -68t58.5 -25q20 0 34 4.5t24 10t18.5 10t17.5 4.5q12 0 20 -5.5t16 -18.5l83 -132q-57 -45 -129 -68t-149 -23q-70 0 -124 20.5t-91 58.5t-56 92t-19 122v556h-97q-22 0 -37.5 14t-15.5 42v108l165 30l56 267q11 45 61 45h144
v-314h732v-1025zM1231 1326q0 -34 -14 -64.5t-37.5 -53t-55 -36t-67.5 -13.5q-34 0 -64.5 13.5t-53.5 36t-36.5 53t-13.5 64.5q0 35 13.5 65.5t36.5 53.5t53.5 36.5t64.5 13.5q36 0 67.5 -13.5t55 -36.5t37.5 -53.5t14 -65.5z" />
    <glyph glyph-name="t_igrave.liga" unicode="t&#xec;" horiz-adv-x="1310" 
d="M1188 0h-275v833h-457v-538q0 -43 20.5 -68t58.5 -25q20 0 34 4.5t24 10t18.5 10t17.5 4.5q12 0 20 -5.5t16 -18.5l83 -132q-57 -45 -129 -68t-149 -23q-70 0 -124 20.5t-91 58.5t-56 92t-19 122v556h-97q-22 0 -37.5 14t-15.5 42v108l165 30l56 267q11 45 61 45h144
v-314h732v-1025zM975 1467q43 0 64.5 -14t37.5 -42l139 -244h-156q-31 0 -50.5 8.5t-39.5 29.5l-253 262h258z" />
    <glyph glyph-name="t_iacute.liga" unicode="t&#xed;" horiz-adv-x="1310" 
d="M1188 0h-275v833h-457v-538q0 -43 20.5 -68t58.5 -25q20 0 34 4.5t24 10t18.5 10t17.5 4.5q12 0 20 -5.5t16 -18.5l83 -132q-57 -45 -129 -68t-149 -23q-70 0 -124 20.5t-91 58.5t-56 92t-19 122v556h-97q-22 0 -37.5 14t-15.5 42v108l165 30l56 267q11 45 61 45h144
v-314h732v-1025zM1428 1467l-253 -262q-20 -21 -39.5 -29.5t-50.5 -8.5h-166l140 244q15 28 36.5 42t65.5 14h267z" />
    <glyph glyph-name="t_icircumflex.liga" unicode="t&#xee;" horiz-adv-x="1310" 
d="M1188 0h-275v833h-457v-538q0 -43 20.5 -68t58.5 -25q20 0 34 4.5t24 10t18.5 10t17.5 4.5q12 0 20 -5.5t16 -18.5l83 -132q-57 -45 -129 -68t-149 -23q-70 0 -124 20.5t-91 58.5t-56 92t-19 122v556h-97q-22 0 -37.5 14t-15.5 42v108l165 30l56 267q11 45 61 45h144
v-314h732v-1025zM1420 1168h-184q-16 0 -31 5.5t-31 20.5l-88 95q-5 5 -11 11.5t-11 14.5q-12 -15 -23 -26l-90 -95q-28 -26 -62 -26h-191l232 283h258z" />
    <glyph glyph-name="t_idieresis.liga" unicode="t&#xef;" horiz-adv-x="1310" 
d="M1188 0h-275v833h-457v-538q0 -43 20.5 -68t58.5 -25q20 0 34 4.5t24 10t18.5 10t17.5 4.5q12 0 20 -5.5t16 -18.5l83 -132q-57 -45 -129 -68t-149 -23q-70 0 -124 20.5t-91 58.5t-56 92t-19 122v556h-97q-22 0 -37.5 14t-15.5 42v108l165 30l56 267q11 45 61 45h144
v-314h732v-1025zM1031 1294q0 -30 -12 -56t-32.5 -45.5t-48 -30.5t-58.5 -11q-29 0 -55 11t-46 30.5t-32 45.5t-12 56t12 57t32 47.5t46 32t55 11.5q31 0 58.5 -11.5t48 -32t32.5 -47.5t12 -57zM1383 1294q0 -30 -11.5 -56t-32 -45.5t-47.5 -30.5t-58 -11q-30 0 -57 11
t-47 30.5t-31.5 45.5t-11.5 56t11.5 57t31.5 47.5t47 32t57 11.5q31 0 58 -11.5t47.5 -32t32 -47.5t11.5 -57z" />
    <glyph glyph-name="t_imacron.liga" unicode="t&#x12b;" horiz-adv-x="1310" 
d="M1188 0h-275v833h-457v-538q0 -43 20.5 -68t58.5 -25q20 0 34 4.5t24 10t18.5 10t17.5 4.5q12 0 20 -5.5t16 -18.5l83 -132q-57 -45 -129 -68t-149 -23q-70 0 -124 20.5t-91 58.5t-56 92t-19 122v556h-97q-22 0 -37.5 14t-15.5 42v108l165 30l56 267q11 45 61 45h144
v-314h732v-1025zM755 1381h608v-172h-608v172z" />
    <glyph glyph-name="t_itilde.liga" unicode="t&#x129;" horiz-adv-x="1310" 
d="M1188 0h-275v833h-457v-538q0 -43 20.5 -68t58.5 -25q20 0 34 4.5t24 10t18.5 10t17.5 4.5q12 0 20 -5.5t16 -18.5l83 -132q-57 -45 -129 -68t-149 -23q-70 0 -124 20.5t-91 58.5t-56 92t-19 122v556h-97q-22 0 -37.5 14t-15.5 42v108l165 30l56 267q11 45 61 45h144
v-314h732v-1025zM1165 1372q27 0 43 14.5t16 56.5h168q0 -59 -16.5 -107t-45.5 -81.5t-69 -52t-86 -18.5q-36 0 -67.5 12.5t-59 27t-50.5 27t-41 12.5q-27 0 -42.5 -15.5t-15.5 -57.5h-170q0 59 16.5 107t46 82t69 52.5t85.5 18.5q37 0 69 -12t59 -27t49.5 -27t41.5 -12z
" />
    <glyph glyph-name="t_ibreve.liga" unicode="t&#x12d;" horiz-adv-x="1310" 
d="M1188 0h-275v833h-457v-538q0 -43 20.5 -68t58.5 -25q20 0 34 4.5t24 10t18.5 10t17.5 4.5q12 0 20 -5.5t16 -18.5l83 -132q-57 -45 -129 -68t-149 -23q-70 0 -124 20.5t-91 58.5t-56 92t-19 122v556h-97q-22 0 -37.5 14t-15.5 42v108l165 30l56 267q11 45 61 45h144
v-314h732v-1025zM1059 1160q-89 0 -149.5 23t-97 63t-52 93t-15.5 112h193q0 -29 5 -51.5t18.5 -38t37 -23.5t60.5 -8t60.5 8t37 23.5t18.5 38t5 51.5h193q0 -59 -15.5 -112t-52 -93t-97 -63t-149.5 -23z" />
    <glyph glyph-name="t_uni01D0.liga" unicode="t&#x1d0;" horiz-adv-x="1310" 
d="M1188 0h-275v833h-457v-538q0 -43 20.5 -68t58.5 -25q20 0 34 4.5t24 10t18.5 10t17.5 4.5q12 0 20 -5.5t16 -18.5l83 -132q-57 -45 -129 -68t-149 -23q-70 0 -124 20.5t-91 58.5t-56 92t-19 122v556h-97q-22 0 -37.5 14t-15.5 42v108l165 30l56 267q11 45 61 45h144
v-314h732v-1025zM1420 1451l-232 -283h-258l-232 283h191q17 0 31.5 -5.5t22.5 -12.5l96 -102q12 -12 24 -27q6 8 11.5 14.5t11.5 12.5l96 102q8 6 23 12t31 6h184z" />
    <glyph glyph-name="t_uni1E2D.liga" unicode="t&#x1e2d;" horiz-adv-x="1310" 
d="M1188 0h-275v833h-457v-538q0 -43 20.5 -68t58.5 -25q20 0 34 4.5t24 10t18.5 10t17.5 4.5q12 0 20 -5.5t16 -18.5l83 -132q-57 -45 -129 -68t-149 -23q-70 0 -124 20.5t-91 58.5t-56 92t-19 122v556h-97q-22 0 -37.5 14t-15.5 42v108l165 30l56 267q11 45 61 45h144
v-314h732v-1025zM1231 1326q0 -34 -14 -64.5t-37.5 -53t-55 -36t-67.5 -13.5q-34 0 -64.5 13.5t-53.5 36t-36.5 53t-13.5 64.5q0 35 13.5 65.5t36.5 53.5t53.5 36.5t64.5 13.5q36 0 67.5 -13.5t55 -36.5t37.5 -53.5t14 -65.5zM1163 -142q27 0 43 14.5t16 56.5h168
q0 -59 -16.5 -107t-45.5 -81.5t-69 -52t-86 -18.5q-36 0 -67.5 12.5t-59 27t-50.5 27t-41 12.5q-27 0 -42.5 -15.5t-15.5 -57.5h-170q0 59 16.5 107t46 82t69 52.5t85.5 18.5q37 0 69 -12t59 -27t49.5 -27t41.5 -12z" />
    <glyph glyph-name="t_uni1E2F.liga" unicode="t&#x1e2f;" horiz-adv-x="1310" 
d="M1188 0h-275v833h-457v-538q0 -43 20.5 -68t58.5 -25q20 0 34 4.5t24 10t18.5 10t17.5 4.5q12 0 20 -5.5t16 -18.5l83 -132q-57 -45 -129 -68t-149 -23q-70 0 -124 20.5t-91 58.5t-56 92t-19 122v556h-97q-22 0 -37.5 14t-15.5 42v108l165 30l56 267q11 45 61 45h144
v-314h732v-1025zM1468 1792l-253 -262q-20 -21 -39.5 -29.5t-50.5 -8.5h-166l140 244q15 28 36.5 42t65.5 14h267zM1000 1294q0 -30 -12 -56t-32.5 -45.5t-48 -30.5t-58.5 -11q-29 0 -55.5 11t-46.5 30.5t-32 45.5t-12 56t12 57t32 47.5t46.5 32t55.5 11.5q31 0 58.5 -11.5
t48 -32t32.5 -47.5t12 -57zM1415 1294q0 -30 -12 -56t-32 -45.5t-47.5 -30.5t-58.5 -11q-30 0 -57 11t-47 30.5t-31.5 45.5t-11.5 56t11.5 57t31.5 47.5t47 32t57 11.5q31 0 58.5 -11.5t47.5 -32t32 -47.5t12 -57z" />
    <glyph glyph-name="t_uni0268.liga" unicode="t&#x268;" horiz-adv-x="1368" 
d="M1057 1159q-34 0 -64.5 13.5t-53.5 36t-36.5 53t-13.5 64.5q0 35 13.5 65.5t36.5 53.5t53.5 36.5t64.5 13.5q36 0 67.5 -13.5t55 -36.5t37.5 -53.5t14 -65.5q0 -34 -14 -64.5t-37.5 -53t-55 -36t-67.5 -13.5zM1334 385h-146v-385h-275v385h-121v191h121v257h-457v-538
q0 -43 20.5 -68t58.5 -25q20 0 34 4.5t24 10t18.5 10t17.5 4.5q12 0 20 -5.5t16 -18.5l83 -132q-57 -45 -129 -68t-149 -23q-70 0 -124 20.5t-91 58.5t-56 92t-19 122v556h-97q-22 0 -37.5 14t-15.5 42v108l165 30l56 267q11 45 61 45h144v-314h732v-449h146v-191z" />
    <glyph glyph-name="t_uni020B.liga" unicode="t&#x20b;" horiz-adv-x="1310" 
d="M1188 0h-275v833h-457v-538q0 -43 20.5 -68t58.5 -25q20 0 34 4.5t24 10t18.5 10t17.5 4.5q12 0 20 -5.5t16 -18.5l83 -132q-57 -45 -129 -68t-149 -23q-70 0 -124 20.5t-91 58.5t-56 92t-19 122v556h-97q-22 0 -37.5 14t-15.5 42v108l165 30l56 267q11 45 61 45h144
v-314h732v-1025zM1059 1466q89 0 149.5 -23.5t97 -63t52 -92.5t15.5 -112h-193q0 29 -5 51.5t-18.5 38t-37 23.5t-60.5 8t-60.5 -8t-37 -23.5t-18.5 -38t-5 -51.5h-193q0 59 15.5 112t52 92.5t97 63t149.5 23.5z" />
    <glyph glyph-name="t_uni0209.liga" unicode="t&#x209;" horiz-adv-x="1310" 
d="M1188 0h-275v833h-457v-538q0 -43 20.5 -68t58.5 -25q20 0 34 4.5t24 10t18.5 10t17.5 4.5q12 0 20 -5.5t16 -18.5l83 -132q-57 -45 -129 -68t-149 -23q-70 0 -124 20.5t-91 58.5t-56 92t-19 122v556h-97q-22 0 -37.5 14t-15.5 42v108l165 30l56 267q11 45 61 45h144
v-314h732v-1025zM1100 1467q43 0 65 -14t36 -42l122 -244h-112q-32 0 -52.5 7.5t-37.5 30.5l-200 262h179zM755 1467q21 0 36.5 -4t26.5 -11t20.5 -17.5t18.5 -23.5l177 -244h-130q-32 0 -51 8.5t-39 29.5l-256 262h197z" />
    <glyph glyph-name="t_t_i.liga" unicode="tti" horiz-adv-x="1959" 
d="M1836 0h-275v833h-437v-538q0 -43 21 -68t58 -25q20 0 34 4.5t24 10t18.5 10t17.5 4.5q12 0 20 -5.5t16 -18.5l83 -132q-57 -45 -129 -68t-149 -23q-70 0 -124 20.5t-91 58.5t-56 92t-19 122v556h-392v-538q0 -43 20.5 -68t58.5 -25q20 0 34 4.5t24 10t18.5 10t17.5 4.5
q12 0 20 -5.5t16 -18.5l83 -132q-57 -45 -129 -68t-149 -23q-70 0 -124 20.5t-91 58.5t-56 92t-19 122v556h-97q-22 0 -37.5 14t-15.5 42v108l165 30l56 267q11 45 61 45h144v-314h407l57 269q11 45 61 45h143v-314h712v-1025zM1874 1326q0 -34 -14 -64.5t-37.5 -53t-55 -36
t-67.5 -13.5q-34 0 -64.5 13.5t-53.5 36t-36.5 53t-13.5 64.5q0 35 13.5 65.5t36.5 53.5t53.5 36.5t64.5 13.5q36 0 67.5 -13.5t55 -36.5t37.5 -53.5t14 -65.5z" />
    <glyph glyph-name="t_t_igrave.liga" unicode="tt&#xec;" horiz-adv-x="1959" 
d="M1836 0h-275v833h-437v-538q0 -43 21 -68t58 -25q20 0 34 4.5t24 10t18.5 10t17.5 4.5q12 0 20 -5.5t16 -18.5l83 -132q-57 -45 -129 -68t-149 -23q-70 0 -124 20.5t-91 58.5t-56 92t-19 122v556h-392v-538q0 -43 20.5 -68t58.5 -25q20 0 34 4.5t24 10t18.5 10t17.5 4.5
q12 0 20 -5.5t16 -18.5l83 -132q-57 -45 -129 -68t-149 -23q-70 0 -124 20.5t-91 58.5t-56 92t-19 122v556h-97q-22 0 -37.5 14t-15.5 42v108l165 30l56 267q11 45 61 45h144v-314h407l57 269q11 45 61 45h143v-314h712v-1025zM1618 1467q43 0 64.5 -14t37.5 -42l139 -244
h-156q-31 0 -50.5 8.5t-39.5 29.5l-253 262h258z" />
    <glyph glyph-name="t_t_iacute.liga" unicode="tt&#xed;" horiz-adv-x="1958" 
d="M1836 0h-275v833h-437v-538q0 -43 21 -68t58 -25q20 0 34 4.5t24 10t18.5 10t17.5 4.5q12 0 20 -5.5t16 -18.5l83 -132q-57 -45 -129 -68t-149 -23q-70 0 -124 20.5t-91 58.5t-56 92t-19 122v556h-392v-538q0 -43 20.5 -68t58.5 -25q20 0 34 4.5t24 10t18.5 10t17.5 4.5
q12 0 20 -5.5t16 -18.5l83 -132q-57 -45 -129 -68t-149 -23q-70 0 -124 20.5t-91 58.5t-56 92t-19 122v556h-97q-22 0 -37.5 14t-15.5 42v108l165 30l56 267q11 45 61 45h144v-314h407l57 269q11 45 61 45h143v-314h712v-1025zM2071 1467l-253 -262q-20 -21 -39.5 -29.5
t-50.5 -8.5h-166l140 244q15 28 36.5 42t65.5 14h267z" />
    <glyph glyph-name="t_t_icircumflex.liga" unicode="tt&#xee;" horiz-adv-x="1959" 
d="M1836 0h-275v833h-437v-538q0 -43 21 -68t58 -25q20 0 34 4.5t24 10t18.5 10t17.5 4.5q12 0 20 -5.5t16 -18.5l83 -132q-57 -45 -129 -68t-149 -23q-70 0 -124 20.5t-91 58.5t-56 92t-19 122v556h-392v-538q0 -43 20.5 -68t58.5 -25q20 0 34 4.5t24 10t18.5 10t17.5 4.5
q12 0 20 -5.5t16 -18.5l83 -132q-57 -45 -129 -68t-149 -23q-70 0 -124 20.5t-91 58.5t-56 92t-19 122v556h-97q-22 0 -37.5 14t-15.5 42v108l165 30l56 267q11 45 61 45h144v-314h407l57 269q11 45 61 45h143v-314h712v-1025zM2063 1168h-184q-16 0 -31 5.5t-31 20.5
l-88 95q-5 5 -11 11.5t-11 14.5q-12 -15 -23 -26l-90 -95q-28 -26 -62 -26h-191l232 283h258z" />
    <glyph glyph-name="t_t_idieresis.liga" unicode="tt&#xef;" horiz-adv-x="1959" 
d="M1836 0h-275v833h-437v-538q0 -43 21 -68t58 -25q20 0 34 4.5t24 10t18.5 10t17.5 4.5q12 0 20 -5.5t16 -18.5l83 -132q-57 -45 -129 -68t-149 -23q-70 0 -124 20.5t-91 58.5t-56 92t-19 122v556h-392v-538q0 -43 20.5 -68t58.5 -25q20 0 34 4.5t24 10t18.5 10t17.5 4.5
q12 0 20 -5.5t16 -18.5l83 -132q-57 -45 -129 -68t-149 -23q-70 0 -124 20.5t-91 58.5t-56 92t-19 122v556h-97q-22 0 -37.5 14t-15.5 42v108l165 30l56 267q11 45 61 45h144v-314h407l57 269q11 45 61 45h143v-314h712v-1025zM1674 1294q0 -30 -12 -56t-32.5 -45.5
t-48 -30.5t-58.5 -11q-29 0 -55 11t-46 30.5t-32 45.5t-12 56t12 57t32 47.5t46 32t55 11.5q31 0 58.5 -11.5t48 -32t32.5 -47.5t12 -57zM2026 1294q0 -30 -11.5 -56t-32 -45.5t-47.5 -30.5t-58 -11q-30 0 -57 11t-47 30.5t-31.5 45.5t-11.5 56t11.5 57t31.5 47.5t47 32
t57 11.5q31 0 58 -11.5t47.5 -32t32 -47.5t11.5 -57z" />
    <glyph glyph-name="t_t_imacron.liga" unicode="tt&#x12b;" horiz-adv-x="1959" 
d="M1836 0h-275v833h-437v-538q0 -43 21 -68t58 -25q20 0 34 4.5t24 10t18.5 10t17.5 4.5q12 0 20 -5.5t16 -18.5l83 -132q-57 -45 -129 -68t-149 -23q-70 0 -124 20.5t-91 58.5t-56 92t-19 122v556h-392v-538q0 -43 20.5 -68t58.5 -25q20 0 34 4.5t24 10t18.5 10t17.5 4.5
q12 0 20 -5.5t16 -18.5l83 -132q-57 -45 -129 -68t-149 -23q-70 0 -124 20.5t-91 58.5t-56 92t-19 122v556h-97q-22 0 -37.5 14t-15.5 42v108l165 30l56 267q11 45 61 45h144v-314h407l57 269q11 45 61 45h143v-314h712v-1025zM1398 1381h608v-172h-608v172z" />
    <glyph glyph-name="t_t_itilde.liga" unicode="tt&#x129;" horiz-adv-x="1958" 
d="M1836 0h-275v833h-437v-538q0 -43 21 -68t58 -25q20 0 34 4.5t24 10t18.5 10t17.5 4.5q12 0 20 -5.5t16 -18.5l83 -132q-57 -45 -129 -68t-149 -23q-70 0 -124 20.5t-91 58.5t-56 92t-19 122v556h-392v-538q0 -43 20.5 -68t58.5 -25q20 0 34 4.5t24 10t18.5 10t17.5 4.5
q12 0 20 -5.5t16 -18.5l83 -132q-57 -45 -129 -68t-149 -23q-70 0 -124 20.5t-91 58.5t-56 92t-19 122v556h-97q-22 0 -37.5 14t-15.5 42v108l165 30l56 267q11 45 61 45h144v-314h407l57 269q11 45 61 45h143v-314h712v-1025zM1808 1372q27 0 43 14.5t16 56.5h168
q0 -59 -16.5 -107t-45.5 -81.5t-69 -52t-86 -18.5q-36 0 -67.5 12.5t-59 27t-50.5 27t-41 12.5q-27 0 -42.5 -15.5t-15.5 -57.5h-170q0 59 16.5 107t46 82t69 52.5t85.5 18.5q37 0 69 -12t59 -27t49.5 -27t41.5 -12z" />
    <glyph glyph-name="t_t_ibreve.liga" unicode="tt&#x12d;" horiz-adv-x="1959" 
d="M1836 0h-275v833h-437v-538q0 -43 21 -68t58 -25q20 0 34 4.5t24 10t18.5 10t17.5 4.5q12 0 20 -5.5t16 -18.5l83 -132q-57 -45 -129 -68t-149 -23q-70 0 -124 20.5t-91 58.5t-56 92t-19 122v556h-392v-538q0 -43 20.5 -68t58.5 -25q20 0 34 4.5t24 10t18.5 10t17.5 4.5
q12 0 20 -5.5t16 -18.5l83 -132q-57 -45 -129 -68t-149 -23q-70 0 -124 20.5t-91 58.5t-56 92t-19 122v556h-97q-22 0 -37.5 14t-15.5 42v108l165 30l56 267q11 45 61 45h144v-314h407l57 269q11 45 61 45h143v-314h712v-1025zM1702 1160q-89 0 -149.5 23t-97 63t-52 93
t-15.5 112h193q0 -29 5 -51.5t18.5 -38t37 -23.5t60.5 -8t60.5 8t37 23.5t18.5 38t5 51.5h193q0 -59 -15.5 -112t-52 -93t-97 -63t-149.5 -23z" />
    <glyph glyph-name="t_t_uni01D0.liga" unicode="tt&#x1d0;" horiz-adv-x="1959" 
d="M1836 0h-275v833h-437v-538q0 -43 21 -68t58 -25q20 0 34 4.5t24 10t18.5 10t17.5 4.5q12 0 20 -5.5t16 -18.5l83 -132q-57 -45 -129 -68t-149 -23q-70 0 -124 20.5t-91 58.5t-56 92t-19 122v556h-392v-538q0 -43 20.5 -68t58.5 -25q20 0 34 4.5t24 10t18.5 10t17.5 4.5
q12 0 20 -5.5t16 -18.5l83 -132q-57 -45 -129 -68t-149 -23q-70 0 -124 20.5t-91 58.5t-56 92t-19 122v556h-97q-22 0 -37.5 14t-15.5 42v108l165 30l56 267q11 45 61 45h144v-314h407l57 269q11 45 61 45h143v-314h712v-1025zM2063 1451l-232 -283h-258l-232 283h191
q17 0 31.5 -5.5t22.5 -12.5l96 -102q12 -12 24 -27q6 8 11.5 14.5t11.5 12.5l96 102q8 6 23 12t31 6h184z" />
    <glyph glyph-name="t_t_uni1E2D.liga" unicode="tt&#x1e2d;" horiz-adv-x="1958" 
d="M1836 0h-275v833h-437v-538q0 -43 21 -68t58 -25q20 0 34 4.5t24 10t18.5 10t17.5 4.5q12 0 20 -5.5t16 -18.5l83 -132q-57 -45 -129 -68t-149 -23q-70 0 -124 20.5t-91 58.5t-56 92t-19 122v556h-392v-538q0 -43 20.5 -68t58.5 -25q20 0 34 4.5t24 10t18.5 10t17.5 4.5
q12 0 20 -5.5t16 -18.5l83 -132q-57 -45 -129 -68t-149 -23q-70 0 -124 20.5t-91 58.5t-56 92t-19 122v556h-97q-22 0 -37.5 14t-15.5 42v108l165 30l56 267q11 45 61 45h144v-314h407l57 269q11 45 61 45h143v-314h712v-1025zM1808 -142q27 0 43 14.5t16 56.5h168
q0 -59 -16.5 -107t-45.5 -81.5t-69 -52t-86 -18.5q-36 0 -67.5 12.5t-59 27t-50.5 27t-41 12.5q-27 0 -42.5 -15.5t-15.5 -57.5h-170q0 59 16.5 107t46 82t69 52.5t85.5 18.5q37 0 69 -12t59 -27t49.5 -27t41.5 -12zM1874 1326q0 -34 -14 -64.5t-37.5 -53t-55 -36
t-67.5 -13.5q-34 0 -64.5 13.5t-53.5 36t-36.5 53t-13.5 64.5q0 35 13.5 65.5t36.5 53.5t53.5 36.5t64.5 13.5q36 0 67.5 -13.5t55 -36.5t37.5 -53.5t14 -65.5z" />
    <glyph glyph-name="t_t_uni1E2F.liga" unicode="tt&#x1e2f;" horiz-adv-x="1958" 
d="M1836 0h-275v833h-437v-538q0 -43 21 -68t58 -25q20 0 34 4.5t24 10t18.5 10t17.5 4.5q12 0 20 -5.5t16 -18.5l83 -132q-57 -45 -129 -68t-149 -23q-70 0 -124 20.5t-91 58.5t-56 92t-19 122v556h-392v-538q0 -43 20.5 -68t58.5 -25q20 0 34 4.5t24 10t18.5 10t17.5 4.5
q12 0 20 -5.5t16 -18.5l83 -132q-57 -45 -129 -68t-149 -23q-70 0 -124 20.5t-91 58.5t-56 92t-19 122v556h-97q-22 0 -37.5 14t-15.5 42v108l165 30l56 267q11 45 61 45h144v-314h407l57 269q11 45 61 45h143v-314h712v-1025zM2111 1792l-253 -262q-20 -21 -39.5 -29.5
t-50.5 -8.5h-166l140 244q15 28 36.5 42t65.5 14h267zM1643 1294q0 -30 -12 -56t-32.5 -45.5t-48 -30.5t-58.5 -11q-29 0 -55.5 11t-46.5 30.5t-32 45.5t-12 56t12 57t32 47.5t46.5 32t55.5 11.5q31 0 58.5 -11.5t48 -32t32.5 -47.5t12 -57zM2058 1294q0 -30 -12 -56
t-32 -45.5t-47.5 -30.5t-58.5 -11q-30 0 -57 11t-47 30.5t-31.5 45.5t-11.5 56t11.5 57t31.5 47.5t47 32t57 11.5q31 0 58.5 -11.5t47.5 -32t32 -47.5t12 -57z" />
    <glyph glyph-name="t_t_uni0268.liga" unicode="tt&#x268;" horiz-adv-x="2012" 
d="M1700 1159q-34 0 -64.5 13.5t-53.5 36t-36.5 53t-13.5 64.5q0 35 13.5 65.5t36.5 53.5t53.5 36.5t64.5 13.5q36 0 67.5 -13.5t55 -36.5t37.5 -53.5t14 -65.5q0 -34 -14 -64.5t-37.5 -53t-55 -36t-67.5 -13.5zM1980 385h-144v-385h-275v385h-123v191h123v257h-437v-538
q0 -43 21 -68t58 -25q20 0 34 4.5t24 10t18.5 10t17.5 4.5q12 0 20 -5.5t16 -18.5l83 -132q-57 -45 -129 -68t-149 -23q-70 0 -124 20.5t-91 58.5t-56 92t-19 122v556h-392v-538q0 -43 20.5 -68t58.5 -25q20 0 34 4.5t24 10t18.5 10t17.5 4.5q12 0 20 -5.5t16 -18.5l83 -132
q-57 -45 -129 -68t-149 -23q-70 0 -124 20.5t-91 58.5t-56 92t-19 122v556h-97q-22 0 -37.5 14t-15.5 42v108l165 30l56 267q11 45 61 45h144v-314h407l57 269q11 45 61 45h143v-314h712v-449h144v-191z" />
    <glyph glyph-name="t_t_uni020B.liga" unicode="tt&#x20b;" horiz-adv-x="1959" 
d="M1836 0h-275v833h-437v-538q0 -43 21 -68t58 -25q20 0 34 4.5t24 10t18.5 10t17.5 4.5q12 0 20 -5.5t16 -18.5l83 -132q-57 -45 -129 -68t-149 -23q-70 0 -124 20.5t-91 58.5t-56 92t-19 122v556h-392v-538q0 -43 20.5 -68t58.5 -25q20 0 34 4.5t24 10t18.5 10t17.5 4.5
q12 0 20 -5.5t16 -18.5l83 -132q-57 -45 -129 -68t-149 -23q-70 0 -124 20.5t-91 58.5t-56 92t-19 122v556h-97q-22 0 -37.5 14t-15.5 42v108l165 30l56 267q11 45 61 45h144v-314h407l57 269q11 45 61 45h143v-314h712v-1025zM1702 1466q89 0 149.5 -23.5t97 -63t52 -92.5
t15.5 -112h-193q0 29 -5 51.5t-18.5 38t-37 23.5t-60.5 8t-60.5 -8t-37 -23.5t-18.5 -38t-5 -51.5h-193q0 59 15.5 112t52 92.5t97 63t149.5 23.5z" />
    <glyph glyph-name="t_t_uni0209.liga" unicode="tt&#x209;" horiz-adv-x="1959" 
d="M1836 0h-275v833h-437v-538q0 -43 21 -68t58 -25q20 0 34 4.5t24 10t18.5 10t17.5 4.5q12 0 20 -5.5t16 -18.5l83 -132q-57 -45 -129 -68t-149 -23q-70 0 -124 20.5t-91 58.5t-56 92t-19 122v556h-392v-538q0 -43 20.5 -68t58.5 -25q20 0 34 4.5t24 10t18.5 10t17.5 4.5
q12 0 20 -5.5t16 -18.5l83 -132q-57 -45 -129 -68t-149 -23q-70 0 -124 20.5t-91 58.5t-56 92t-19 122v556h-97q-22 0 -37.5 14t-15.5 42v108l165 30l56 267q11 45 61 45h144v-314h407l57 269q11 45 61 45h143v-314h712v-1025zM1743 1467q43 0 65 -14t36 -42l122 -244h-112
q-32 0 -52.5 7.5t-37.5 30.5l-200 262h179zM1398 1467q21 0 36.5 -4t26.5 -11t20.5 -17.5t18.5 -23.5l177 -244h-130q-32 0 -51 8.5t-39 29.5l-256 262h197z" />
    <glyph glyph-name=".notdef" horiz-adv-x="1107" 
d="M235 1149q59 47 134 78.5t177 31.5q73 0 131 -19.5t97.5 -54.5t60.5 -85t21 -110q0 -55 -13.5 -94.5t-34 -69t-45 -50.5t-46.5 -39t-39.5 -35.5t-22.5 -39.5l-25 -94h-188l-19 114q-7 38 3.5 65t30 48.5t45 39.5t47.5 38t37 44t15 57q0 29 -19 48t-61 19q-35 0 -57.5 -6
t-39 -13.5t-30.5 -13.5t-30 -6q-37 0 -56 32zM380 321q0 30 11 56.5t31 46t46.5 31t58.5 11.5q31 0 57.5 -11.5t46 -31t31 -46t11.5 -56.5t-11.5 -56.5t-31 -46t-46 -30.5t-57.5 -11q-32 0 -58.5 11t-46.5 30.5t-31 46t-11 56.5zM41 1451h1025v-1451h-1025v1451zM111 74h876
v1303h-876v-1303z" />
    <glyph glyph-name="glyph1" 
 />
    <glyph glyph-name="glyph1" 
 />
    <glyph glyph-name="nonmarkingreturn" horiz-adv-x="666" 
 />
    <glyph glyph-name="space" unicode=" " horiz-adv-x="475" 
 />
    <glyph glyph-name="space" unicode="&#xa0;" horiz-adv-x="475" 
 />
    <glyph glyph-name="exclam" unicode="!" horiz-adv-x="572" 
d="M416 1451v-572q0 -91 -9.5 -180t-26.5 -185h-186q-17 96 -26.5 185t-9.5 180v572h258zM121 145q0 33 12.5 62.5t34.5 51t51.5 34t64.5 12.5q34 0 63.5 -12.5t51.5 -34t35 -51t13 -62.5q0 -34 -13 -63t-35 -50.5t-51.5 -33.5t-63.5 -12q-35 0 -64.5 12t-51.5 33.5
t-34.5 50.5t-12.5 63z" />
    <glyph glyph-name="quotedbl" unicode="&#x22;" horiz-adv-x="811" 
d="M334 1451v-287l-24 -157q-8 -48 -28.5 -74t-67.5 -26q-41 0 -63 26t-32 74l-25 157v287h240zM716 1451v-287l-24 -157q-8 -48 -28.5 -74t-67.5 -26q-41 0 -63 26t-32 74l-25 157v287h240z" />
    <glyph glyph-name="numbersign" unicode="#" horiz-adv-x="1160" 
d="M689 855h-187l-46 -257h187zM1141 1051l-21 -114q-8 -42 -35 -62t-86 -20h-83l-46 -257h126q42 0 59.5 -25t8.5 -85l-14 -86h-208l-74 -402h-127q-19 0 -35.5 9t-28 24.5t-16 35.5t0.5 43l53 290h-186l-54 -304q-10 -53 -45 -75.5t-79 -22.5h-122l73 402h-103
q-42 0 -59.5 24.5t-8.5 84.5l14 87h185l46 257h-207l21 114q8 42 35.5 62t86.5 20h91l58 309q8 42 40.5 66.5t75.5 24.5h126l-74 -400h187l74 400h123q43 0 68.5 -26.5t18.5 -66.5l-57 -307h198z" />
    <glyph glyph-name="dollar" unicode="$" horiz-adv-x="1160" 
d="M639 214q96 14 144 65.5t48 137.5q0 34 -12 59.5t-33 45.5t-50 35.5t-63 27.5zM562 1234q-51 -7 -87 -22.5t-58.5 -37.5t-33 -48.5t-10.5 -56.5q0 -34 11.5 -60.5t32.5 -47.5t50 -37.5t64 -29.5zM696 840q48 -14 96 -30.5t92 -37.5t82 -49t66.5 -65.5t44.5 -86.5t16 -112
q0 -93 -31.5 -175.5t-92.5 -146t-149 -103.5t-202 -48l-12 -136q-2 -26 -22 -47t-52 -21h-101l19 211q-57 8 -112.5 24.5t-106.5 40t-96 53t-81 64.5l85 125q11 16 30 26.5t39 10.5q23 0 48 -14t55.5 -33.5t69 -39.5t89.5 -31l38 415q-48 13 -95.5 29.5t-91.5 38.5
t-81.5 51.5t-65.5 70.5t-44 94.5t-16 123.5q0 78 31 151.5t90.5 131.5t146.5 95.5t200 43.5l11 119q2 26 22.5 46.5t51.5 20.5h102l-18 -196q108 -19 185 -62t132 -97l-68 -100q-14 -23 -30 -33.5t-38 -10.5q-15 0 -35.5 8.5t-45.5 21t-55.5 25.5t-64.5 22z" />
    <glyph glyph-name="percent" unicode="%" horiz-adv-x="1654" 
d="M755 1100q0 -81 -28 -147t-75.5 -113.5t-109.5 -73t-129 -25.5q-74 0 -136 25.5t-107.5 73t-71 113.5t-25.5 147q0 84 25.5 151.5t71 115t107.5 73.5t136 26t137 -26t108.5 -73.5t71 -115t25.5 -151.5zM543 1100q0 54 -10 90.5t-27.5 58.5t-41.5 31.5t-51 9.5t-50.5 -9.5
t-40 -31.5t-26 -58.5t-9.5 -90.5q0 -53 9.5 -88t26 -56.5t40 -30.5t50.5 -9t51 9t41.5 30.5t27.5 56.5t10 88zM1225 1409q14 16 33.5 29t54.5 13h201l-1085 -1411q-14 -17 -34 -28.5t-49 -11.5h-205zM1581 341q0 -81 -28 -147t-75.5 -113.5t-109.5 -73t-129 -25.5
q-74 0 -136 25.5t-107.5 73t-71 113.5t-25.5 147q0 84 25.5 151.5t71 115t107.5 73t136 25.5t137 -25.5t108.5 -73t71 -115t25.5 -151.5zM1369 341q0 54 -10 90.5t-27.5 58.5t-41.5 31.5t-51 9.5t-50.5 -9.5t-40 -31.5t-26 -58.5t-9.5 -90.5q0 -53 9.5 -88t26 -56.5
t40 -30.5t50.5 -9t51 9t41.5 30.5t27.5 56.5t10 88z" />
    <glyph glyph-name="ampersand" unicode="&#x26;" horiz-adv-x="1456" 
d="M477 663q-69 -50 -99 -110t-30 -127q0 -52 17 -93.5t47 -71t71 -45.5t88 -16q78 0 144.5 22.5t121.5 64.5zM1456 0h-271q-21 0 -37.5 2t-30.5 8t-27 16t-27 25l-82 86q-96 -73 -211.5 -113t-247.5 -40q-85 0 -167 29.5t-146 84t-103 132t-39 174.5q0 67 21 127t59.5 111
t91 93t115.5 72q-51 74 -73.5 144.5t-22.5 139.5q0 76 28 144.5t81 120t130.5 81.5t176.5 30q92 0 164 -27.5t122 -73.5t78.5 -105t34.5 -123l-176 -36q-49 -10 -71 40q-20 52 -55.5 85.5t-96.5 33.5q-38 0 -68 -13.5t-50.5 -36.5t-31 -53.5t-10.5 -64.5q0 -28 5.5 -54
t18 -52.5t33.5 -54.5t51 -60l373 -390q31 61 49 128.5t24 138.5q3 26 17.5 41t39.5 15h173q0 -138 -38.5 -261t-107.5 -226z" />
    <glyph glyph-name="quotesingle" unicode="'" horiz-adv-x="429" 
d="M334 1451v-287l-24 -157q-8 -48 -28.5 -74t-67.5 -26q-41 0 -63 26t-32 74l-25 157v287h240z" />
    <glyph glyph-name="parenleft" unicode="(" horiz-adv-x="555" 
d="M305 627q0 -203 47.5 -401t135.5 -371q12 -22 13.5 -38.5t-3 -29.5t-14 -22t-21.5 -16l-122 -73q-74 114 -126 229t-85 233.5t-48.5 240t-15.5 248.5q0 126 15.5 248t48.5 240t85 233.5t126 228.5l122 -72q12 -7 21.5 -16t14 -22t3 -30t-13.5 -39q-88 -172 -135.5 -370
t-47.5 -401z" />
    <glyph glyph-name="parenright" unicode=")" horiz-adv-x="555" 
d="M250 627q0 203 -47.5 401t-135.5 370q-12 22 -13.5 39t3 30t14 22t20.5 16l123 72q73 -113 125 -228.5t85 -233.5t48.5 -240t15.5 -248q0 -127 -15.5 -248.5t-48.5 -240t-85 -233.5t-125 -229l-123 73q-11 7 -20.5 16t-14 22t-3 29.5t13.5 38.5q88 173 135.5 371
t47.5 401z" />
    <glyph glyph-name="asterisk" unicode="*" horiz-adv-x="850" 
d="M604 1203q-18 -11 -36.5 -18.5t-37.5 -11.5q37 -6 74 -29l153 -91l-64 -109l-153 91q-18 11 -34 22.5t-28 25.5q12 -35 12 -76v-180h-131v178q0 20 2.5 39.5t8.5 36.5q-23 -26 -60 -46l-152 -89l-65 109l153 89q19 11 37.5 18.5t37.5 10.5q-19 3 -38 11t-37 19l-153 91
l64 108l153 -91q37 -20 61 -47q-12 34 -12 75v181h131v-179q0 -20 -2.5 -39.5t-8.5 -36.5q12 14 27.5 25t33.5 21l152 89l65 -108z" />
    <glyph glyph-name="plus" unicode="+" horiz-adv-x="1160" 
d="M1071 571h-380v-405h-224v405h-378v201h378v404h224v-404h380v-201z" />
    <glyph glyph-name="comma" unicode="," horiz-adv-x="473" 
d="M113 -246q-11 9 -15.5 18t-4.5 22q0 9 6.5 19.5t15.5 19.5q11 12 27 29.5t32 39t29.5 47.5t20.5 55q-33 1 -60 14t-46 34t-29.5 49.5t-10.5 61.5q0 30 11 56t31.5 45t49 30t63.5 11q41 0 71.5 -14.5t50.5 -38.5t30 -56.5t10 -68.5q0 -49 -15 -103.5t-45 -109.5
t-73.5 -107.5t-100.5 -95.5z" />
    <glyph glyph-name="hyphen" unicode="-" horiz-adv-x="747" 
d="M109 719h528v-226h-528v226z" />
    <glyph glyph-name="hyphen" unicode="&#x2010;" horiz-adv-x="747" 
d="M109 719h528v-226h-528v226z" />
    <glyph glyph-name="hyphen" unicode="&#xad;" horiz-adv-x="747" 
d="M109 719h528v-226h-528v226z" />
    <glyph glyph-name="period" unicode="." horiz-adv-x="476" 
d="M75 145q0 33 12.5 62.5t34.5 51t51.5 34t64.5 12.5q34 0 64 -12.5t52 -34t34.5 -51t12.5 -62.5q0 -34 -12.5 -63t-34.5 -50.5t-52 -33.5t-64 -12q-35 0 -64.5 12t-51.5 33.5t-34.5 50.5t-12.5 63z" />
    <glyph glyph-name="slash" unicode="/" horiz-adv-x="944" 
d="M317 4q-19 -50 -60.5 -75.5t-84.5 -25.5h-117l577 1493q17 45 54 70t85 25h118z" />
    <glyph glyph-name="zero" unicode="0" horiz-adv-x="1160" 
d="M1115 726q0 -190 -41 -330t-113 -231.5t-170.5 -136t-212.5 -44.5t-212 44.5t-169 136t-111.5 231.5t-40.5 330t40.5 329.5t111.5 231t169 136t212 44.5t212.5 -44.5t170.5 -136t113 -231t41 -329.5zM830 726q0 154 -21.5 254t-56.5 158t-80.5 81t-93.5 23t-92.5 -23
t-79 -81t-55.5 -158t-21 -254q0 -155 21 -255t55.5 -158t79 -81t92.5 -23t93.5 23t80.5 81t56.5 158t21.5 255z" />
    <glyph glyph-name="one" unicode="1" horiz-adv-x="1160" 
d="M1042 203v-203h-814v203h288v794q0 26 1 53t3 55l-190 -158q-20 -15 -39 -19t-36 -0.5t-30 12t-20 17.5l-87 117l446 378h227v-1249h251z" />
    <glyph glyph-name="two" unicode="2" horiz-adv-x="1160" 
d="M979 253q45 0 70.5 -25t25.5 -66v-162h-1006v90q0 26 11 56.5t37 55.5l430 431q55 55 97 105.5t70 99t42 98.5t14 105q0 97 -50 147.5t-141 50.5q-40 0 -73.5 -11.5t-60 -31.5t-45.5 -47t-28 -59q-18 -50 -48.5 -66.5t-86.5 -7.5l-146 26q16 106 60 186t110 133t151 79.5
t183 26.5q103 0 187.5 -30.5t144.5 -85t93 -131.5t33 -170q0 -80 -23 -148t-62.5 -129.5t-91.5 -119.5t-110 -117l-308 -315q51 15 101 23.5t94 8.5h326z" />
    <glyph glyph-name="three" unicode="3" horiz-adv-x="1160" 
d="M99 1042q16 106 60 186t110 133t150.5 79.5t182.5 26.5q104 0 186.5 -29.5t139.5 -80.5t87.5 -119t30.5 -146q0 -69 -14.5 -121.5t-43 -91.5t-70 -66t-95.5 -45q250 -82 250 -333q0 -111 -41 -195.5t-110 -141.5t-160.5 -85.5t-191.5 -28.5q-106 0 -187 24t-142.5 72
t-105.5 120.5t-77 169.5l122 50q48 20 89.5 11t59.5 -44q20 -38 42.5 -70t50.5 -55.5t63.5 -36.5t81.5 -13q58 0 101 19t72 49.5t43.5 69t14.5 76.5q0 50 -9 90.5t-41.5 69t-96 44t-172.5 15.5v194q91 0 149 15t91 42t45.5 65t12.5 83q0 95 -49.5 145t-140.5 50
q-40 0 -73.5 -11.5t-60 -31.5t-45.5 -47t-28 -59q-19 -50 -49 -66.5t-87 -7.5z" />
    <glyph glyph-name="four" unicode="4" horiz-adv-x="1160" 
d="M704 554v432q0 34 2.5 72.5t7.5 80.5l-420 -585h410zM1112 554v-156q0 -22 -14.5 -37.5t-40.5 -15.5h-113v-345h-240v345h-599q-26 0 -47.5 16t-26.5 42l-29 138l680 911h262v-898h168z" />
    <glyph glyph-name="five" unicode="5" horiz-adv-x="1160" 
d="M423 931q45 9 86.5 13t80.5 4q114 0 201.5 -34.5t147 -94.5t89.5 -141t30 -174q0 -116 -41 -211.5t-113.5 -164t-173 -106.5t-219.5 -38q-69 0 -132 14.5t-117.5 39t-101.5 56.5t-84 67l85 116q27 37 70 37q27 0 53 -16t59 -35.5t77 -35.5t107 -16q65 0 113 21.5t79.5 59
t47 89t15.5 110.5q0 113 -64.5 174.5t-187.5 61.5q-101 0 -203 -38l-171 48l122 714h728v-116q0 -29 -8.5 -52.5t-28 -41t-50 -27t-74.5 -9.5h-375z" />
    <glyph glyph-name="six" unicode="6" horiz-adv-x="1160" 
d="M542 930l-44 -53q38 17 82 26t95 9q81 0 158 -27t137 -81t96.5 -135.5t36.5 -191.5q0 -101 -37.5 -191t-106 -157t-164 -106t-212.5 -39q-119 0 -213 37.5t-160 105.5t-101 162.5t-35 208.5q0 105 41.5 213t126.5 222l337 454q20 26 59 45t89 19h245zM578 206
q54 0 100 19t79 53t52 79.5t19 99.5q0 59 -18 106t-51 79.5t-79 49.5t-102 17q-53 0 -97 -18.5t-75.5 -52t-49 -79.5t-17.5 -101q0 -57 15 -103.5t45 -79.5t74.5 -51t104.5 -18z" />
    <glyph glyph-name="seven" unicode="7" horiz-adv-x="1160" 
d="M1097 1451v-118q0 -52 -11.5 -84t-22.5 -54l-528 -1103q-20 -38 -54 -65t-92 -27h-200l541 1077q20 38 41 69t47 59h-669q-24 0 -43.5 19t-19.5 43v184h1011z" />
    <glyph glyph-name="eight" unicode="8" horiz-adv-x="1160" 
d="M580 195q57 0 99.5 17t70.5 46.5t42 70t14 87.5q0 108 -55.5 167.5t-170.5 59.5t-170.5 -59.5t-55.5 -167.5q0 -47 14 -87.5t42 -70t70.5 -46.5t99.5 -17zM580 1263q-51 0 -87.5 -16t-60 -42.5t-34.5 -61.5t-11 -73q0 -41 9 -79.5t31 -68.5t59 -48t94 -18t94 18t59 48
t31 68.5t9 79.5q0 38 -11 73t-34.5 61.5t-60 42.5t-87.5 16zM838 756q132 -44 192 -132.5t60 -212.5q0 -97 -37 -176t-104 -134.5t-161 -86t-208 -30.5t-208 30.5t-161 86t-104 134.5t-37 176q0 124 60 212.5t192 132.5q-103 45 -153.5 126t-50.5 193q0 84 34 155.5
t95.5 124t146.5 82.5t186 30t186 -30t146.5 -82.5t95.5 -124t34 -155.5q0 -112 -50.5 -193t-153.5 -126z" />
    <glyph glyph-name="nine" unicode="9" horiz-adv-x="1160" 
d="M350 1012q0 -115 56.5 -175t165.5 -60q55 0 98.5 17.5t72.5 48.5t44.5 74t15.5 94q0 57 -17 100.5t-47.5 73.5t-72.5 45.5t-93 15.5q-52 0 -93 -17.5t-70 -49t-44.5 -74.5t-15.5 -93zM641 557q15 19 29 37l28 36q-48 -28 -104.5 -42.5t-119.5 -14.5q-73 0 -144.5 26
t-128.5 78t-92 130.5t-35 184.5q0 97 36 183.5t102 151t158.5 102.5t205.5 38q114 0 205 -35.5t154 -99.5t97 -152.5t34 -194.5q0 -69 -11 -131t-32 -118t-50.5 -109t-66.5 -104l-323 -461q-20 -26 -57.5 -44t-85.5 -18h-254z" />
    <glyph glyph-name="colon" unicode=":" horiz-adv-x="522" 
d="M98 145q0 33 12.5 62.5t34.5 51t51.5 34t64.5 12.5q34 0 64 -12.5t52 -34t34.5 -51t12.5 -62.5q0 -34 -12.5 -63t-34.5 -50.5t-52 -33.5t-64 -12q-35 0 -64.5 12t-51.5 33.5t-34.5 50.5t-12.5 63zM98 845q0 33 12.5 62.5t34.5 51t51.5 34t64.5 12.5q34 0 64 -12.5t52 -34
t34.5 -51t12.5 -62.5q0 -34 -12.5 -63t-34.5 -50.5t-52 -33.5t-64 -12q-35 0 -64.5 12t-51.5 33.5t-34.5 50.5t-12.5 63z" />
    <glyph glyph-name="semicolon" unicode=";" horiz-adv-x="549" 
d="M152 -246q-11 9 -15.5 18t-4.5 22q0 9 6.5 19.5t15.5 19.5q11 12 27 29.5t32 39t29.5 47.5t20.5 55q-33 1 -60 14t-46 34t-29.5 49.5t-10.5 61.5q0 30 11 56t31.5 45t49 30t63.5 11q41 0 71.5 -14.5t50.5 -38.5t30 -56.5t10 -68.5q0 -49 -15 -103.5t-45 -109.5
t-73.5 -107.5t-100.5 -95.5zM109 845q0 33 12.5 62.5t34.5 51t51.5 34t64.5 12.5q34 0 64 -12.5t52 -34t34.5 -51t12.5 -62.5q0 -34 -12.5 -63t-34.5 -50.5t-52 -33.5t-64 -12q-35 0 -64.5 12t-51.5 33.5t-34.5 50.5t-12.5 63z" />
    <glyph glyph-name="less" unicode="&#x3c;" horiz-adv-x="1160" 
d="M574 712q-24 -12 -51.5 -21t-57.5 -17q60 -14 109 -38l327 -171q26 -12 36.5 -30t10.5 -40v-194l-801 419v109l801 418v-194q0 -21 -10.5 -39t-36.5 -30z" />
    <glyph glyph-name="equal" unicode="=" horiz-adv-x="1160" 
d="M132 593h896v-201h-896v201zM132 952h896v-201h-896v201z" />
    <glyph glyph-name="greater" unicode="&#x3e;" horiz-adv-x="1160" 
d="M1013 729v-109l-801 -419v194q0 22 10.5 40t36.5 30l327 171q25 12 52 21.5t58 16.5q-31 7 -58 16.5t-52 21.5l-327 172q-26 12 -36.5 30t-10.5 39v194z" />
    <glyph glyph-name="question" unicode="?" horiz-adv-x="930" 
d="M66 1319q36 31 77.5 58t90 47t105 31.5t121.5 11.5q90 0 163 -24.5t125 -70t80.5 -109.5t28.5 -143q0 -76 -21.5 -131.5t-54 -96.5t-71.5 -71t-74 -56t-60.5 -51.5t-31.5 -56.5l-25 -143h-189l-19 162q-7 48 12 83.5t51 65t71.5 57t74 59t58 71t23.5 93.5q0 66 -45.5 105
t-120.5 39q-55 0 -92.5 -12t-64.5 -26.5t-46 -26.5t-36 -12q-38 0 -57 33zM253 145q0 33 12.5 62.5t34.5 51t51.5 34t64.5 12.5q34 0 64 -12.5t52 -34t34.5 -51t12.5 -62.5q0 -34 -12.5 -63t-34.5 -50.5t-52 -33.5t-64 -12q-35 0 -64.5 12t-51.5 33.5t-34.5 50.5t-12.5 63z
" />
    <glyph glyph-name="at" unicode="@" horiz-adv-x="1692" 
d="M1018 796q-14 2 -28.5 3t-29.5 1q-57 0 -107 -25.5t-87.5 -69t-59 -100.5t-21.5 -120q0 -62 25 -94.5t73 -32.5q24 0 48 7.5t46 26t39.5 49t29.5 77.5zM1158 547q-14 -59 -14.5 -97.5t10.5 -60.5t31.5 -30.5t47.5 -8.5q39 0 74 26t61 72.5t41 110t15 138.5
q0 127 -39 224.5t-109.5 162.5t-169.5 98.5t-218 33.5q-87 0 -165.5 -22t-145.5 -62.5t-121 -97.5t-92 -127t-58.5 -150.5t-20.5 -168.5q0 -162 50 -285t137.5 -205t206.5 -123.5t258 -41.5q78 0 144.5 8.5t122 22.5t99.5 32t77 37q29 16 50.5 9.5t31.5 -32.5l38 -97
q-103 -68 -242.5 -111t-320.5 -43q-184 0 -340 57.5t-269.5 165t-177.5 261t-64 345.5q0 106 28 207t79 190t123.5 163.5t161.5 128t192.5 83.5t217.5 30q95 0 186.5 -21.5t173 -63t150 -102t118 -137.5t77 -169.5t27.5 -199.5t-32 -200.5t-89 -163.5t-135.5 -110
t-171.5 -40q-66 0 -120 30t-78 99q-59 -69 -124.5 -98.5t-141.5 -29.5q-64 0 -111.5 22t-79.5 61.5t-48 93.5t-16 117q0 57 14.5 115.5t43.5 113t73 102.5t103 83.5t133.5 56t165.5 20.5q41 0 75 -3t64 -9t56.5 -15t53.5 -20z" />
    <glyph glyph-name="A" unicode="A" horiz-adv-x="1404" 
d="M918 551l-157 444q-14 35 -29.5 82t-29.5 102q-14 -56 -29.5 -103.5t-29.5 -82.5l-156 -442h431zM1422 0h-233q-39 0 -63.5 18.5t-36.5 47.5l-98 277h-578l-98 -277q-10 -25 -35 -45.5t-63 -20.5h-235l567 1451h307z" />
    <glyph glyph-name="B" unicode="B" horiz-adv-x="1327" 
d="M709 230q72 0 118.5 17.5t74.5 46.5t39 66.5t11 77.5q0 44 -13 79t-42 59.5t-75.5 37.5t-114.5 13h-255v-397h257zM452 1223v-392h197q63 0 112 10.5t82 33.5t50.5 60.5t17.5 90.5q0 54 -14.5 92t-44.5 61t-76 33.5t-109 10.5h-215zM667 1451q146 0 249.5 -27.5t169 -78
t95.5 -122.5t30 -161q0 -50 -14.5 -96t-45 -86.5t-78.5 -73.5t-114 -56q148 -35 219 -114t71 -205q0 -92 -35.5 -171t-103.5 -137t-167.5 -90.5t-228.5 -32.5h-562v1451h515z" />
    <glyph glyph-name="C" unicode="C" horiz-adv-x="1318" 
d="M1140 357q25 0 42 -18l119 -127q-88 -112 -218.5 -170t-310.5 -58q-163 0 -293 55.5t-221 154.5t-140 235t-49 297q0 108 23.5 205.5t68.5 179.5t108.5 148t143.5 112.5t174.5 71t201.5 24.5q80 0 151.5 -14t133.5 -39t114.5 -60.5t94.5 -77.5l-101 -138q-9 -13 -23 -23
t-38 -10t-48.5 17t-60 38t-89 38t-135.5 17q-91 0 -167 -33t-130.5 -95.5t-84.5 -153.5t-30 -207q0 -117 32.5 -208.5t89 -154.5t132 -95.5t161.5 -32.5q51 0 92.5 5t77 17t67 31t63.5 48q11 9 23 15t26 6z" />
    <glyph glyph-name="D" unicode="D" horiz-adv-x="1522" 
d="M1453 726q0 -159 -53.5 -292.5t-151 -229.5t-234.5 -150t-304 -54h-558v1451h558q167 0 304 -54t234.5 -150.5t151 -229.5t53.5 -291zM1145 726q0 114 -30 205t-86 154t-136.5 97t-182.5 34h-256v-981h256q102 0 182.5 33.5t136.5 97t86 154.5t30 206z" />
    <glyph glyph-name="E" unicode="E" horiz-adv-x="1148" 
d="M454 1216v-373h484v-227h-484v-381h622v-235h-924v1451h924v-235h-622z" />
    <glyph glyph-name="F" unicode="F" horiz-adv-x="1132" 
d="M454 1216v-401h522v-236h-522v-579h-302v1451h924v-235h-622z" />
    <glyph glyph-name="G" unicode="G" horiz-adv-x="1449" 
d="M858 739h498v-599q-111 -81 -236.5 -118.5t-265.5 -37.5q-179 0 -324 55.5t-248 154.5t-159 235t-56 297q0 163 53.5 299t152.5 234t239.5 153t314.5 55q90 0 168 -14.5t144 -40t121 -60.5t100 -77l-87 -134q-20 -32 -52 -39t-70 16q-36 22 -70.5 39.5t-73.5 30.5t-85 20
t-106 7q-101 0 -183 -35t-139.5 -99t-88.5 -154t-31 -201q0 -120 34 -214.5t96 -159.5t148.5 -99t192.5 -34q72 0 128.5 14.5t110.5 39.5v244h-164q-29 0 -45.5 15.5t-16.5 39.5v167z" />
    <glyph glyph-name="H" unicode="H" horiz-adv-x="1547" 
d="M1395 1451v-1451h-302v625h-639v-625h-302v1451h302v-616h639v616h302z" />
    <glyph glyph-name="I" unicode="I" horiz-adv-x="606" 
d="M454 0h-302v1451h302v-1451z" />
    <glyph glyph-name="J" unicode="J" horiz-adv-x="864" 
d="M726 520q0 -122 -30 -220.5t-90.5 -169t-151.5 -108.5t-212 -38q-55 0 -108.5 6.5t-112.5 20.5l8 88l8 88q3 24 19 38.5t46 14.5q17 0 43.5 -6t65.5 -6q54 0 94 15t67 49t40.5 88.5t13.5 132.5v938h300v-931z" />
    <glyph glyph-name="K" unicode="K" horiz-adv-x="1390" 
d="M452 852h59q74 0 107 46l367 491q26 35 57 48.5t76 13.5h260l-462 -595q-45 -58 -93 -83q35 -14 63 -36.5t54 -59.5l474 -677h-267q-26 0 -44.5 4t-32.5 11t-24 17.5t-19 24.5l-373 522q-19 27 -45 38.5t-73 11.5h-84v-629h-300v1451h300v-599z" />
    <glyph glyph-name="L" unicode="L" horiz-adv-x="1044" 
d="M1013 244v-244h-861v1451h300v-1207h561z" />
    <glyph glyph-name="M" unicode="M" horiz-adv-x="1903" 
d="M1752 1451v-1451h-265v891q0 28 1.5 60t5.5 65l-415 -787q-34 -65 -105 -65h-42q-35 0 -62 16.5t-43 48.5l-417 790q3 -35 5 -67.5t2 -60.5v-891h-265v1451h228q19 0 34 -1t26.5 -5.5t21 -14t18.5 -26.5l406 -774q19 -35 35.5 -72t31.5 -76q15 40 31.5 78t35.5 73
l403 771q9 17 19 26.5t21.5 14t26 5.5t34.5 1h228z" />
    <glyph glyph-name="N" unicode="N" horiz-adv-x="1547" 
d="M1395 1451v-1451h-155q-35 0 -59 11.5t-47 39.5l-723 920q3 -35 4.5 -69t1.5 -63v-839h-265v1451h158q19 0 32.5 -1.5t24.5 -7t21 -14.5t22 -24l728 -924q-4 38 -6 73.5t-2 67.5v830h265z" />
    <glyph glyph-name="O" unicode="O" horiz-adv-x="1622" 
d="M1554 726q0 -159 -53.5 -295t-151 -235t-234.5 -155.5t-304 -56.5t-304 56.5t-235 155.5t-151.5 235t-53.5 295t53.5 294.5t151.5 234.5t235 155.5t304 56.5t304 -56.5t234.5 -156t151 -235t53.5 -293.5zM1247 726q0 114 -30 204.5t-86.5 154t-137 97t-182.5 33.5
t-183 -33.5t-137.5 -97t-86.5 -154t-30 -204.5q0 -115 30 -205.5t86.5 -153.5t137.5 -96.5t183 -33.5t182.5 33.5t137 96.5t86.5 153.5t30 205.5z" />
    <glyph glyph-name="P" unicode="P" horiz-adv-x="1254" 
d="M642 729q141 0 206.5 68t65.5 186q0 54 -16.5 98.5t-50 76t-84.5 48.5t-121 17h-190v-494h190zM642 1451q149 0 257.5 -35t178.5 -97.5t103.5 -148.5t33.5 -187q0 -107 -35 -196t-106 -153t-179 -99.5t-253 -35.5h-190v-499h-300v1451h490z" />
    <glyph glyph-name="Q" unicode="Q" horiz-adv-x="1623" 
d="M375 726q0 -115 30 -205.5t86.5 -153.5t137.5 -96.5t183 -33.5t182.5 33.5t137 96.5t86.5 153.5t30 205.5q0 114 -30 204.5t-86.5 154t-137 97t-182.5 33.5t-183 -33.5t-137.5 -97t-86.5 -154t-30 -204.5zM1633 -278h-247q-54 0 -96.5 14t-78.5 52l-197 219
q-97 -23 -202 -23q-167 0 -304 56.5t-235 155.5t-151.5 235t-53.5 295t53.5 294.5t151.5 234.5t235 155.5t304 56.5t304 -56.5t234.5 -156t151 -235t53.5 -293.5q0 -96 -19.5 -183.5t-56.5 -164t-91 -141.5t-122 -114z" />
    <glyph glyph-name="R" unicode="R" horiz-adv-x="1299" 
d="M606 764q73 0 126 18.5t87 51t50 76.5t16 96q0 103 -68.5 160t-208.5 57h-156v-459h154zM1309 0h-271q-76 0 -110 58l-276 445q-17 26 -37.5 38t-60.5 12h-102v-553h-300v1451h456q152 0 260 -31.5t177 -87.5t101 -133.5t32 -170.5q0 -72 -20.5 -136.5t-59.5 -117.5
t-96 -94t-130 -66q29 -16 54 -38.5t45 -53.5z" />
    <glyph glyph-name="S" unicode="S" horiz-adv-x="1102" 
d="M938 1173q-14 -23 -28.5 -33.5t-37.5 -10.5q-22 0 -47.5 15.5t-59.5 33.5t-78 33.5t-103 15.5q-104 0 -156 -46.5t-52 -121.5q0 -48 28.5 -79.5t75 -54.5t105.5 -41t121 -39.5t121 -50.5t105.5 -73t75 -107.5t28.5 -154.5q0 -99 -34.5 -185.5t-99.5 -151t-160.5 -101.5
t-216.5 -37q-69 0 -137.5 14t-132 39t-119.5 60t-98 78l88 142q11 16 29 26.5t38 10.5q27 0 57 -20t69 -44t90.5 -44t123.5 -20q105 0 162.5 48t57.5 143q0 55 -28.5 89t-74.5 57t-105 39.5t-121 36.5t-121 48t-105 74t-74.5 114t-28.5 169q0 81 32 157t94 135t152.5 95
t207.5 36q131 0 242.5 -40.5t188.5 -112.5z" />
    <glyph glyph-name="T" unicode="T" horiz-adv-x="1208" 
d="M1179 1209h-424v-1209h-301v1209h-424v242h1149v-242z" />
    <glyph glyph-name="U" unicode="U" horiz-adv-x="1491" 
d="M746 240q73 0 131 24.5t98 69.5t61 109t21 144v864h300v-864q0 -132 -42.5 -242.5t-121.5 -190.5t-192 -125t-255 -45t-255.5 45t-192.5 125t-121.5 190.5t-42.5 242.5v864h300v-864q0 -80 21 -144t61 -109t98 -69.5t132 -24.5z" />
    <glyph glyph-name="V" unicode="V" horiz-adv-x="1404" 
d="M1422 1451l-584 -1451h-272l-584 1451h242q39 0 63.5 -18.5t36.5 -47.5l314 -836q18 -47 35.5 -102.5t32.5 -116.5q13 61 28.5 116.5t33.5 102.5l312 836q10 25 35.5 45.5t63.5 20.5h243z" />
    <glyph glyph-name="W" unicode="W" horiz-adv-x="2115" 
d="M2104 1451l-450 -1451h-271l-297 949q-7 20 -14 44t-13 51q-6 -27 -13 -51t-14 -44l-300 -949h-272l-449 1451h252q39 0 65.5 -18t34.5 -48l225 -818q8 -34 16.5 -73.5t16.5 -83.5q9 45 19 84t22 73l262 818q8 25 34.5 45.5t64.5 20.5h88q39 0 63.5 -18.5t36.5 -47.5
l261 -818q12 -32 22 -69.5t19 -79.5q8 42 15.5 79.5t15.5 69.5l225 818q7 26 34 46t65 20h236z" />
    <glyph glyph-name="X" unicode="X" horiz-adv-x="1359" 
d="M1361 0h-300q-30 0 -48.5 15t-29.5 35l-314 534q-5 -11 -9.5 -21.5t-10.5 -19.5l-298 -493q-13 -19 -30.5 -34.5t-44.5 -15.5h-280l475 747l-457 704h300q30 0 44 -8t25 -26l312 -513q5 12 11 24.5t14 25.5l280 458q12 20 26.5 29.5t35.5 9.5h287l-461 -691z" />
    <glyph glyph-name="Y" unicode="Y" horiz-adv-x="1316" 
d="M808 558v-558h-300v558l-527 893h264q39 0 62.5 -18.5t37.5 -47.5l238 -457q24 -46 43.5 -86t34.5 -80q14 40 32.5 80.5t41.5 85.5l236 457q12 24 36 45t62 21h266z" />
    <glyph glyph-name="Z" unicode="Z" horiz-adv-x="1214" 
d="M1165 1341q0 -23 -7.5 -46.5t-21.5 -43.5l-716 -1016h725v-235h-1110v117q0 21 7 41.5t20 37.5l718 1020h-694v235h1079v-110z" />
    <glyph glyph-name="bracketleft" unicode="[" horiz-adv-x="633" 
d="M388 1376v-1516h125q32 0 52.5 -20.5t20.5 -48.5v-106h-428v1867h428v-107q0 -28 -20.5 -48.5t-52.5 -20.5h-125z" />
    <glyph glyph-name="backslash" unicode="\" horiz-adv-x="944" 
d="M55 1491h117q49 0 86 -25t54 -70l577 -1493h-117q-44 0 -85 25.5t-61 75.5z" />
    <glyph glyph-name="bracketright" unicode="]" horiz-adv-x="633" 
d="M475 -315h-427v106q0 28 20 48.5t52 20.5h125v1516h-125q-32 0 -52 20.5t-20 48.5v107h427v-1867z" />
    <glyph glyph-name="asciicircum" unicode="^" horiz-adv-x="1160" 
d="M1075 676h-202q-25 0 -41.5 12t-26.5 32l-174 363q-17 35 -30 65.5t-23 61.5q-9 -31 -21 -61.5t-27 -65.5l-161 -363q-8 -19 -26 -31.5t-45 -12.5h-213l401 775h179z" />
    <glyph glyph-name="underscore" unicode="_" horiz-adv-x="939" 
d="M863 -122v-176h-788v176h788z" />
    <glyph glyph-name="grave" unicode="`" horiz-adv-x="800" 
d="M316 1467q43 0 64.5 -14t37.5 -42l139 -244h-156q-31 0 -50.5 8.5t-39.5 29.5l-253 262h258z" />
    <glyph glyph-name="a" unicode="a" horiz-adv-x="1024" 
d="M653 431q-101 -5 -168 -17.5t-106.5 -32.5t-56 -45.5t-16.5 -55.5q0 -60 33.5 -85t93.5 -25q69 0 119.5 24.5t100.5 76.5v160zM91 888q91 82 201 122.5t238 40.5q92 0 164.5 -30t123 -83.5t77.5 -127.5t27 -162v-648h-126q-39 0 -59.5 11t-33.5 46l-22 66
q-39 -34 -75.5 -60t-75.5 -43.5t-83.5 -26.5t-99.5 -9q-68 0 -124 18t-96.5 53.5t-62.5 88.5t-22 122q0 57 29 114t99.5 103.5t188 77t294.5 34.5v53q0 97 -41 142.5t-118 45.5q-57 0 -95 -13.5t-66.5 -29t-53.5 -29t-58 -13.5q-29 0 -48.5 14.5t-32.5 34.5z" />
    <glyph glyph-name="b" unicode="b" horiz-adv-x="1142" 
d="M390 272q39 -45 84.5 -63t94.5 -18q51 0 92.5 18.5t71.5 59t46 105.5t16 157q0 82 -13 139.5t-38.5 94.5t-62.5 54t-86 17q-65 0 -112.5 -28.5t-92.5 -83.5v-452zM390 912q61 61 135 98t166 37q89 0 160.5 -35.5t122 -101.5t78 -159.5t27.5 -209.5q0 -125 -31.5 -227.5
t-89.5 -175.5t-138.5 -113t-179.5 -40q-48 0 -86 9.5t-70 26.5t-59 40.5t-51 52.5l-11 -62q-7 -29 -23 -40.5t-43 -11.5h-183v1491h276v-579z" />
    <glyph glyph-name="c" unicode="c" horiz-adv-x="968" 
d="M862 801q-12 -16 -24 -24.5t-34 -8.5q-20 0 -38.5 11.5t-42.5 25t-57 25t-82 11.5q-62 0 -107.5 -22.5t-75.5 -64.5t-44.5 -102t-14.5 -135q0 -158 63.5 -242t173.5 -84q38 0 65.5 6.5t48 16.5t35.5 22t28.5 22t27 16.5t30.5 6.5q32 0 50 -24l79 -100q-44 -51 -94 -84.5
t-103.5 -53t-108.5 -27t-109 -7.5q-95 0 -180 35.5t-149 103.5t-101.5 167t-37.5 226q0 113 33 210t97 168t158.5 111.5t218.5 40.5q118 0 207 -38t160 -110z" />
    <glyph glyph-name="d" unicode="d" horiz-adv-x="1142" 
d="M751 763q-39 45 -84.5 63t-96.5 18q-50 0 -91 -19t-70.5 -59.5t-45.5 -103.5t-16 -150q0 -86 13 -146t37.5 -97t59.5 -53.5t78 -16.5q73 0 122.5 29t93.5 82v453zM1027 1491v-1491h-170q-53 0 -68 48l-23 90q-31 -34 -65.5 -62t-74.5 -48.5t-86 -31.5t-100 -11
q-83 0 -152 35t-119.5 102.5t-78.5 165.5t-28 224q0 115 31.5 214t89.5 171t140 113t182 41q84 0 141.5 -25t104.5 -68v533h276z" />
    <glyph glyph-name="e" unicode="e" horiz-adv-x="1072" 
d="M768 637q0 43 -11.5 82t-36.5 69t-63 47.5t-91 17.5q-99 0 -155 -56t-73 -160h430zM334 473q13 -145 82.5 -212t181.5 -67q57 0 98.5 13.5t73 30t57 30t50.5 13.5q32 0 50 -24l80 -100q-44 -51 -97 -84.5t-110 -53t-115 -27t-112 -7.5q-108 0 -201.5 35.5t-163 105
t-109.5 172.5t-40 239q0 105 34.5 198t99.5 162t158 109.5t210 40.5q99 0 182.5 -31.5t144 -91.5t94 -147.5t33.5 -199.5q0 -31 -3 -51t-10 -32t-19 -16.5t-31 -4.5h-618z" />
    <glyph glyph-name="f" unicode="f" horiz-adv-x="724" 
d="M189 0v833l-80 14q-31 6 -50.5 22t-19.5 46v110h150v68q0 88 27.5 159.5t78.5 121t125 76.5t167 27q36 0 68.5 -4.5t65.5 -13.5l-6 -136q-2 -31 -26.5 -40.5t-54.5 -9.5q-42 0 -75.5 -9t-56.5 -30.5t-35 -58t-12 -90.5v-60h256v-192h-247v-833h-275z" />
    <glyph glyph-name="g" unicode="g" horiz-adv-x="1063" 
d="M498 554q85 0 125.5 43t40.5 111q0 71 -40.5 111.5t-125.5 40.5t-125 -40.5t-40 -111.5q0 -67 40.5 -110.5t124.5 -43.5zM759 -42q0 27 -17 44t-45.5 27t-67.5 14.5t-83 7t-91 4.5t-92 7q-35 -21 -57.5 -49.5t-22.5 -64.5q0 -25 11.5 -46t38.5 -36t71 -23.5t110 -8.5
q68 0 115 9t76 25.5t41.5 39.5t12.5 50zM1033 997v-101q0 -24 -13.5 -38t-44.5 -21l-84 -17q17 -49 17 -105q0 -77 -31.5 -138.5t-86.5 -105t-130 -67t-162 -23.5q-55 0 -103 9q-42 -26 -42 -57q0 -29 28.5 -42t75 -18.5t106 -7t121 -6.5t121 -17.5t106 -41t75 -75.5
t28.5 -121q0 -69 -34 -134t-98.5 -116t-158.5 -82t-214 -31q-119 0 -206.5 22.5t-145 60t-85.5 86.5t-28 102q0 69 42 117t116 77q-39 22 -62.5 57.5t-23.5 92.5q0 46 33.5 97t103.5 85q-79 42 -125 112.5t-46 164.5q0 77 31.5 139t87.5 105.5t132 66.5t165 23
q132 0 233 -52h302z" />
    <glyph glyph-name="h" unicode="h" horiz-adv-x="1134" 
d="M390 930q29 26 60.5 47.5t67 37t76 24t87.5 8.5q84 0 149 -29t109.5 -81t67 -124t22.5 -158v-655h-275v655q0 86 -40 133.5t-118 47.5q-58 0 -109 -25t-97 -70v-741h-276v1491h276v-561z" />
    <glyph glyph-name="i" unicode="i" horiz-adv-x="520" 
d="M398 1031v-1031h-276v1031h276zM431 1324q0 -35 -14 -65t-37.5 -53t-55 -36t-67.5 -13q-34 0 -64.5 13t-53.5 36t-36.5 53t-13.5 65t13.5 65.5t36.5 53.5t53.5 36t64.5 13q36 0 67.5 -13t55 -36t37.5 -53.5t14 -65.5z" />
    <glyph glyph-name="j" unicode="j" horiz-adv-x="520" 
d="M398 1031v-1051q0 -70 -18 -131.5t-58.5 -107.5t-106 -73t-161.5 -27q-36 0 -67.5 5t-64.5 14l10 146q2 20 14.5 28t49.5 8t61 6.5t38.5 22.5t20.5 42.5t6 66.5v1051h276zM431 1324q0 -35 -14 -65t-37.5 -53t-55 -36t-67.5 -13q-34 0 -64.5 13t-53.5 36t-36.5 53
t-13.5 65t13.5 65.5t36.5 53.5t53.5 36t64.5 13q36 0 67.5 -13t55 -36t37.5 -53.5t14 -65.5z" />
    <glyph glyph-name="k" unicode="k" horiz-adv-x="1091" 
d="M390 1491v-846h46q26 0 41 7.5t30 27.5l228 304q17 23 38.5 35t54.5 12h252l-296 -376q-35 -47 -81 -74q23 -16 40 -37t33 -47l319 -497h-248q-32 0 -55 10.5t-38 37.5l-232 379q-14 24 -29 31t-45 7h-58v-465h-276v1491h276z" />
    <glyph glyph-name="l" unicode="l" horiz-adv-x="508" 
d="M392 1491v-1491h-276v1491h276z" />
    <glyph glyph-name="m" unicode="m" horiz-adv-x="1687" 
d="M114 0v1031h170q52 0 69 -48l16 -67q27 28 55.5 52t61.5 41.5t71.5 27.5t83.5 10q95 0 157 -50.5t94 -134.5q25 49 61.5 84.5t80 57.5t92 32.5t97.5 10.5q87 0 154 -26t112.5 -76.5t69.5 -123.5t24 -166v-655h-276v655q0 181 -155 181q-35 0 -64.5 -11.5t-52 -34.5
t-35 -57t-12.5 -78v-655h-276v655q0 98 -38.5 139.5t-113.5 41.5q-48 0 -90.5 -22.5t-79.5 -62.5v-751h-276z" />
    <glyph glyph-name="n" unicode="n" horiz-adv-x="1134" 
d="M370 911q31 30 64.5 55t71 43t81 28t94.5 10q84 0 149 -29t109.5 -81t67 -124t22.5 -158v-655h-275v655q0 86 -40 133.5t-118 47.5q-58 0 -109 -25t-97 -70v-741h-276v1031h170q52 0 69 -48z" />
    <glyph glyph-name="o" unicode="o" horiz-adv-x="1155" 
d="M579 1047q116 0 211 -37t163 -105.5t105 -166.5t37 -221t-37 -221.5t-105 -167.5t-163 -106t-211 -37q-117 0 -212.5 37t-163.5 106t-105.5 167.5t-37.5 221.5t37.5 221t105.5 166.5t163.5 105.5t212.5 37zM579 192q118 0 175 81.5t57 242.5q0 160 -57 241.5t-175 81.5
q-121 0 -178 -81.5t-57 -241.5q0 -161 57 -242.5t178 -81.5z" />
    <glyph glyph-name="p" unicode="p" horiz-adv-x="1142" 
d="M390 272q39 -45 84.5 -63t97.5 -18q50 0 91 19t70.5 59.5t45.5 103.5t16 150q0 86 -13.5 146t-38 97t-59.5 53.5t-78 16.5q-73 0 -122.5 -28.5t-93.5 -83.5v-452zM374 896q31 34 66 62.5t75 49t86 32t100 11.5q83 0 152.5 -35.5t119.5 -103t78 -165.5t28 -224
q0 -116 -31.5 -214.5t-89.5 -170.5t-139.5 -112.5t-181.5 -40.5q-84 0 -142.5 25t-104.5 68v-411h-276v1364h170q52 0 69 -48z" />
    <glyph glyph-name="q" unicode="q" horiz-adv-x="1141" 
d="M751 763q-39 45 -84.5 63t-96.5 18q-50 0 -91 -19t-70.5 -59.5t-45.5 -103.5t-16 -150q0 -86 13 -146t37.5 -97t59.5 -53.5t78 -16.5q73 0 122.5 29t93.5 82v453zM1027 1031v-1364h-276v455q-60 -62 -135 -99.5t-176 -37.5q-83 0 -152 35t-119.5 102.5t-78.5 165.5
t-28 224q0 115 31.5 214t89.5 171t140 113t182 41q47 0 86 -8.5t71.5 -23.5t60 -37t53.5 -49l13 50q15 48 68 48h170z" />
    <glyph glyph-name="r" unicode="r" horiz-adv-x="754" 
d="M373 861q49 88 113 139t150 51q70 0 114 -33l-18 -204q-5 -20 -15.5 -27.5t-28.5 -7.5q-16 0 -46 4.5t-56 4.5q-38 0 -67.5 -11t-52.5 -31t-41.5 -49t-34.5 -66v-631h-276v1031h163q42 0 58 -15t23 -52z" />
    <glyph glyph-name="s" unicode="s" horiz-adv-x="885" 
d="M755 819q-11 -17 -22.5 -24.5t-31.5 -7.5t-41 10t-47 21.5t-59.5 21.5t-77.5 10q-67 0 -104 -27.5t-37 -72.5q0 -31 21 -52t55.5 -36.5t78.5 -29t90.5 -29.5t90.5 -37t78.5 -52.5t55.5 -76t21 -107.5q0 -75 -27.5 -138.5t-80.5 -109.5t-132 -72t-182 -26q-53 0 -105 9.5
t-99 27t-88 40.5t-71 50l64 103q11 18 27.5 28t42.5 10q25 0 46 -12.5t47 -27t61.5 -27t88.5 -12.5q40 0 69 9t47 24.5t26.5 35t8.5 40.5q0 34 -21.5 55.5t-56 37.5t-79.5 29t-91.5 29t-91 38t-79 55.5t-56 82.5t-21.5 119q0 64 25 121.5t75 101.5t124.5 70t172.5 26
q110 0 200 -36t148 -94z" />
    <glyph glyph-name="t" unicode="t" horiz-adv-x="755" 
d="M470 -16q-70 0 -124 20.5t-91 58.5t-56 92t-19 122v556h-97q-22 0 -37.5 14t-15.5 42v108l165 30l56 267q11 45 61 45h144v-314h266v-192h-266v-538q0 -43 20.5 -68t58.5 -25q20 0 34 4.5t24 10t18.5 10t17.5 4.5q12 0 20 -5.5t16 -18.5l83 -132q-57 -45 -129 -68
t-149 -23z" />
    <glyph glyph-name="u" unicode="u" horiz-adv-x="1133" 
d="M1019 1031v-1031h-170q-53 0 -68 48l-18 72q-31 -30 -64 -55t-70.5 -43t-81 -28t-94.5 -10q-84 0 -149.5 29t-109.5 81t-67 124t-23 158v655h276v-655q0 -86 39.5 -133.5t117.5 -47.5q58 0 109 25.5t97 69.5v741h276z" />
    <glyph glyph-name="v" unicode="v" horiz-adv-x="1066" 
d="M1063 1031l-405 -1031h-250l-405 1031h229q30 0 50 -14t28 -36l173 -510q17 -52 30 -101.5t23 -99.5q11 50 24.5 99.5t31.5 101.5l179 510q7 22 27 36t47 14h218z" />
    <glyph glyph-name="w" unicode="w" horiz-adv-x="1619" 
d="M1607 1031l-324 -1031h-223q-17 0 -30.5 11t-20.5 37l-168 558q-10 32 -17.5 63.5t-13.5 63.5q-7 -32 -14.5 -64.5t-17.5 -64.5l-170 -556q-14 -48 -60 -48h-212l-324 1031h220q30 0 50.5 -14t27.5 -36l127 -510q12 -49 21 -95t17 -91q12 45 25.5 91t28.5 95l151 512
q7 21 27 35t47 14h122q29 0 49.5 -14t27.5 -35l146 -512q14 -48 27 -94.5t24 -93.5q8 46 17.5 92.5t22.5 95.5l133 510q7 22 27 36t47 14h210z" />
    <glyph glyph-name="x" unicode="x" horiz-adv-x="1064" 
d="M1065 0h-265q-30 0 -48.5 15t-29.5 35l-203 339q-9 -34 -26 -60l-174 -279q-12 -19 -29.5 -34.5t-44.5 -15.5h-246l350 532l-336 499h265q30 0 44 -8t25 -26l202 -327q5 17 13 34.5t19 34.5l155 253q24 39 62 39h253l-336 -487z" />
    <glyph glyph-name="y" unicode="y" horiz-adv-x="1064" 
d="M1070 1031l-556 -1308q-13 -28 -31.5 -42t-58.5 -14h-205l195 416l-414 948h242q33 0 51 -15t26 -35l196 -493q11 -29 19.5 -58.5t16.5 -58.5q18 59 41 118l182 492q8 22 29 36t46 14h221z" />
    <glyph glyph-name="z" unicode="z" horiz-adv-x="925" 
d="M867 919q0 -29 -10 -56.5t-26 -44.5l-463 -610h486v-208h-805v114q0 17 9.5 43t26.5 49l467 617h-474v208h789v-112z" />
    <glyph glyph-name="braceleft" unicode="{" horiz-adv-x="616" 
d="M500 1376q-67 0 -100.5 -41.5t-33.5 -114.5q0 -55 5 -105t11.5 -96.5t11.5 -91.5t5 -91q0 -38 -10.5 -72.5t-30.5 -63t-49.5 -50t-66.5 -32.5q37 -11 66.5 -32.5t49.5 -50t30.5 -63t10.5 -71.5q0 -46 -5 -91.5t-11.5 -92t-11.5 -96.5t-5 -105q0 -72 33.5 -114t100.5 -42
h5q7 0 17 -3t19 -10t15.5 -17t6.5 -25v-120h-53q-99 0 -171.5 25t-120 70.5t-70 110t-22.5 142.5q0 48 6 94.5t13.5 93t14 92t6.5 91.5q0 60 -26 98t-88 38v156q62 0 88 38t26 98q0 46 -6.5 91.5t-14 92t-13.5 93t-6 94.5q0 78 22.5 142.5t70 110.5t120 71t171.5 25h53v-121
q0 -15 -6.5 -25t-15.5 -17t-19 -10t-17 -3h-5z" />
    <glyph glyph-name="bar" unicode="|" horiz-adv-x="530" 
d="M158 1552h214v-1894h-214v1894z" />
    <glyph glyph-name="braceright" unicode="}" horiz-adv-x="616" 
d="M564 540q-62 0 -88 -38t-26 -98q0 -46 6 -91.5t13.5 -92t14 -93t6.5 -94.5q0 -78 -22.5 -142.5t-70 -110t-120 -70.5t-171.5 -25h-53v120q0 15 6 25t15 17t19 10t18 3h5q67 0 100.5 42t33.5 114q0 55 -5 105t-11.5 96.5t-11.5 92t-5 91.5q0 37 10.5 71.5t30.5 63t49.5 50
t67.5 32.5q-38 11 -67.5 32.5t-49.5 50t-30.5 63t-10.5 72.5q0 46 5 91t11.5 91.5t11.5 96.5t5 105q0 73 -33.5 114.5t-100.5 41.5h-5q-8 0 -18 3t-19 10t-15 17t-6 25v121h53q99 0 171.5 -25t120 -71t70 -110.5t22.5 -142.5q0 -48 -6.5 -94.5t-14 -93t-13.5 -92t-6 -91.5
q0 -60 26 -98t88 -38v-156z" />
    <glyph glyph-name="asciitilde" unicode="~" horiz-adv-x="1160" 
d="M741 661q53 0 81.5 33.5t28.5 96.5h222q0 -81 -21 -145.5t-61.5 -110.5t-99 -70.5t-132.5 -24.5q-53 0 -101 13t-90 28t-77.5 28t-65.5 13q-53 0 -81.5 -33.5t-28.5 -96.5h-222q0 81 21 146t61.5 110.5t99 70.5t132.5 25q53 0 101 -13t90 -28.5t77.5 -28.5t65.5 -13z" />
    <glyph glyph-name="exclamdown" unicode="&#xa1;" horiz-adv-x="555" 
d="M150 -333v531q0 91 9.5 180t26.5 186h186q17 -97 26.5 -186t9.5 -180v-531h-258zM113 888q0 34 12.5 63t34 50.5t51.5 33.5t65 12q34 0 63.5 -12t51.5 -33.5t35 -50.5t13 -63q0 -33 -13 -62.5t-35 -51t-51.5 -34t-63.5 -12.5q-35 0 -65 12.5t-51.5 34t-34 51t-12.5 62.5z
" />
    <glyph glyph-name="cent" unicode="&#xa2;" horiz-adv-x="1160" 
d="M602 838q-114 -18 -167 -101.5t-53 -220.5q0 -121 41.5 -199t119.5 -110zM1058 155q-37 -42 -80 -72t-89.5 -49.5t-96.5 -30.5t-100 -15l-13 -138q-2 -25 -22 -46t-51 -21h-102l19 209q-88 15 -163.5 56.5t-131 108t-87 157t-31.5 202.5q0 109 33.5 203t98.5 165
t160 113.5t219 47.5l14 149q3 25 22.5 46t51.5 21h101l-21 -228q78 -16 141 -49.5t117 -84.5l-71 -95q-11 -15 -22.5 -23t-32.5 -8q-14 0 -29 6t-32.5 14.5t-39.5 18.5t-50 18l-59 -640q48 6 80.5 19.5t56.5 28t43 25.5t41 11q16 0 29 -6t21 -16z" />
    <glyph glyph-name="sterling" unicode="&#xa3;" horiz-adv-x="1160" 
d="M32 682q0 37 23 63.5t69 26.5h97v227q0 94 28.5 179t86.5 149.5t145.5 102t206.5 37.5q80 0 144.5 -20.5t115 -56t88.5 -84t65 -104.5l-110 -70q-38 -20 -73.5 -17.5t-64.5 34.5q-19 21 -36.5 37.5t-36.5 28.5t-41.5 18t-50.5 6q-94 0 -139 -62.5t-45 -176.5v-228h395
v-107q0 -13 -5.5 -25.5t-16 -22.5t-24.5 -16t-31 -6h-318v-177q0 -63 -23.5 -113.5t-64.5 -93.5q40 8 80 13.5t82 5.5h548v-114q0 -20 -8.5 -41t-24 -37.5t-37 -27t-48.5 -10.5h-957v169q33 7 64 21t54.5 35t37.5 51t14 69v250h-189v87z" />
    <glyph glyph-name="currency" unicode="&#xa4;" horiz-adv-x="1160" 
d="M409 673q0 -35 13.5 -67t36.5 -56t54.5 -38t66.5 -14q36 0 67.5 14t55 38t37 56t13.5 67q0 37 -13.5 69.5t-37 56.5t-55 37.5t-67.5 13.5q-35 0 -66.5 -13.5t-54.5 -37.5t-36.5 -56.5t-13.5 -69.5zM920 202l-151 150q-42 -25 -89.5 -38t-99.5 -13q-51 0 -96.5 12
t-86.5 35l-153 -151l-138 135l152 151q-25 42 -38.5 89.5t-13.5 100.5q0 51 13 97.5t36 88.5l-154 152l139 134l151 -149q42 24 89.5 37t99.5 13q51 0 97 -12.5t87 -35.5l152 152l138 -135l-152 -151q25 -42 38.5 -90t13.5 -101q0 -51 -12.5 -97t-35.5 -87l153 -152z" />
    <glyph glyph-name="yen" unicode="&#xa5;" horiz-adv-x="1160" 
d="M765 635h263v-149h-310v-93h310v-149h-310v-244h-276v244h-310v149h310v93h-310v149h263l-395 816h230q38 0 63 -18t37 -48l195 -459q20 -48 34 -89.5t24 -81.5q8 40 21 81.5t33 89.5l193 459q11 25 36 45.5t63 20.5h231z" />
    <glyph glyph-name="brokenbar" unicode="&#xa6;" horiz-adv-x="536" 
d="M161 1552h214v-814h-214v814zM161 481h214v-814h-214v814z" />
    <glyph glyph-name="section" unicode="&#xa7;" horiz-adv-x="1014" 
d="M327 725q0 -39 27 -67.5t70 -51.5t97 -44t109 -46q35 20 50 46.5t15 58.5q0 40 -26 68.5t-68.5 52t-95.5 44t-107 45.5q-38 -22 -54.5 -47.5t-16.5 -58.5zM827 1237q-11 -17 -23 -24t-31 -7q-20 0 -41 9.5t-47.5 21.5t-60 21.5t-77.5 9.5q-78 0 -118 -31.5t-40 -78.5
q0 -29 23.5 -52t62 -43t87.5 -39.5t100 -42t100 -49.5t87.5 -62.5t62 -81t23.5 -105.5q0 -80 -37 -145.5t-119 -107.5q45 -37 72 -86t27 -117q0 -75 -27.5 -138.5t-81 -109.5t-132.5 -72t-182 -26q-53 0 -105 9.5t-99 27t-88 40.5t-71 50l64 103q11 18 28 28t43 10
q25 0 46 -12.5t48 -27t64.5 -27t94.5 -12.5q75 0 116 29.5t41 83.5q0 39 -24 66t-63 48.5t-88.5 39.5t-101.5 38t-101.5 45.5t-88.5 61t-63 83.5t-24 115q0 79 40.5 141.5t123.5 100.5q-45 39 -73.5 93t-28.5 131q0 64 25 122t75 102t124 70t173 26q109 0 199.5 -36.5
t147.5 -94.5z" />
    <glyph glyph-name="dieresis" unicode="&#xa8;" horiz-adv-x="800" 
d="M341 1294q0 -30 -12 -56t-32.5 -45.5t-48 -30.5t-58.5 -11q-29 0 -55.5 11t-46.5 30.5t-32 45.5t-12 56t12 57t32 47.5t46.5 32t55.5 11.5q31 0 58.5 -11.5t48 -32t32.5 -47.5t12 -57zM756 1294q0 -30 -12 -56t-32 -45.5t-47.5 -30.5t-58.5 -11q-30 0 -57 11t-47 30.5
t-31.5 45.5t-11.5 56t11.5 57t31.5 47.5t47 32t57 11.5q31 0 58.5 -11.5t47.5 -32t32 -47.5t12 -57z" />
    <glyph glyph-name="copyright" unicode="&#xa9;" horiz-adv-x="1642" 
d="M1035 526q11 0 20.5 -5.5t17.5 -13.5l91 -95q-55 -73 -141.5 -111t-201.5 -38q-101 0 -182 36t-138 99t-88 148t-31 183q0 102 35.5 187t97.5 147t146 96.5t181 34.5q113 0 194 -38.5t134 -97.5l-72 -99q-7 -8 -18.5 -17t-28.5 -9q-19 0 -33.5 9.5t-34.5 21t-49.5 21
t-77.5 9.5q-56 0 -98.5 -18.5t-72 -53t-44.5 -83.5t-15 -110q0 -65 15.5 -114t43.5 -83t66.5 -51t83.5 -17q48 0 77.5 8.5t50 19t36 20.5t36.5 14zM80 726q0 102 26.5 197t74.5 177t116 150t150 116t176.5 74.5t196.5 26.5t197 -26.5t177.5 -74.5t150 -116t116 -150t75 -177
t26.5 -197t-26.5 -196.5t-75 -176.5t-116 -150t-150 -116t-177.5 -74.5t-197 -26.5t-196.5 26.5t-176.5 74.5t-150 116t-116 150t-74.5 176.5t-26.5 196.5zM229 726q0 -129 45.5 -240.5t125 -194t187.5 -130t233 -47.5t234 47.5t189.5 130t127 194t46.5 240.5q0 86 -21 165
t-59.5 147.5t-92.5 124.5t-120.5 96t-143.5 61.5t-160 21.5q-125 0 -233 -48t-187.5 -131t-125 -195.5t-45.5 -241.5z" />
    <glyph glyph-name="ordfeminine" unicode="&#xaa;" horiz-adv-x="734" 
d="M437 1087q-53 -2 -87 -8t-53.5 -15.5t-27 -22t-7.5 -26.5q0 -28 16 -38.5t48 -10.5q33 0 58.5 11.5t52.5 37.5v72zM103 1373q57 52 126 75.5t150 23.5q58 0 104.5 -18.5t79 -51.5t50 -78t17.5 -97v-386h-93q-27 0 -40.5 8t-25.5 31l-12 32q-24 -20 -45.5 -34.5t-44 -24.5
t-48.5 -15t-59 -5q-86 0 -137.5 44.5t-51.5 128.5q0 32 16.5 66.5t57.5 63.5t111.5 48.5t178.5 21.5v21q0 51 -21.5 70.5t-61.5 19.5q-32 0 -52.5 -6.5t-37 -15t-32.5 -15t-38 -6.5q-20 0 -33.5 12t-23.5 25z" />
    <glyph glyph-name="guillemotleft" unicode="&#xab;" horiz-adv-x="933" 
d="M464 270q17 -32 11.5 -60t-40.5 -44l-90 -42l-259 399v35l259 399l90 -41q35 -17 40.5 -45t-11.5 -60l-131 -226q-15 -26 -34 -44q19 -18 34 -44zM807 270q17 -32 11.5 -60t-40.5 -44l-90 -42l-259 399v35l259 399l90 -41q35 -17 40.5 -45t-11.5 -60l-131 -226
q-15 -26 -34 -44q19 -18 34 -44z" />
    <glyph glyph-name="logicalnot" unicode="&#xac;" horiz-adv-x="1160" 
d="M1023 290h-233v281h-664v201h897v-482z" />
    <glyph glyph-name="registered" unicode="&#xae;" horiz-adv-x="1642" 
d="M799 760q50 0 80.5 8t47 24t22 39t5.5 53q0 29 -5 50.5t-19.5 36t-41.5 22t-70 7.5h-96v-240h77zM1240 288q83 83 130 195t47 243q0 86 -21 165t-59.5 147.5t-92.5 124.5t-120.5 96t-143.5 61.5t-160 21.5q-125 0 -233 -48t-187.5 -131t-125 -195.5t-45.5 -241.5
t45.5 -240.5t125 -194t187.5 -130t233 -47.5q121 0 226 43.5t185 121.5h-215q-49 0 -69 35l-121 249q-10 15 -22.5 22.5t-37.5 7.5h-44v-314h-239v899h335q193 0 282 -68t89 -195q0 -87 -43.5 -154t-136.5 -99q26 -14 43 -35.5t32 -50.5zM820 1467q102 0 197 -26.5
t177.5 -74.5t150 -116t116 -150t75 -177t26.5 -197t-26.5 -196.5t-75 -176.5t-116 -150t-150 -116t-177.5 -74.5t-197 -26.5t-196.5 26.5t-176.5 74.5t-150 116t-116 150t-74.5 176.5t-26.5 196.5t26.5 197t74.5 177t116 150t150 116t176.5 74.5t196.5 26.5z" />
    <glyph glyph-name="macron" unicode="&#xaf;" horiz-adv-x="800" 
d="M96 1381h608v-172h-608v172z" />
    <glyph glyph-name="macron" unicode="&#x2c9;" horiz-adv-x="800" 
d="M96 1381h608v-172h-608v172z" />
    <glyph glyph-name="degree" unicode="&#xb0;" horiz-adv-x="831" 
d="M61 1121q0 72 27 135.5t75 111t112.5 74.5t139.5 27t140 -27t112.5 -74.5t75 -111t27.5 -135.5q0 -71 -27.5 -133.5t-75 -110t-112.5 -75t-140 -27.5t-139.5 27.5t-112.5 75t-75 110t-27 133.5zM252 1120q0 -36 12 -66.5t34 -53t51.5 -35.5t65.5 -13q35 0 65 13
t51.5 35.5t33.5 53t12 66.5t-12 67t-33.5 54t-51.5 36t-65 13q-36 0 -65.5 -13t-51.5 -36t-34 -54t-12 -67z" />
    <glyph glyph-name="plusminus" unicode="&#xb1;" horiz-adv-x="1160" 
d="M89 281h982v-201h-982v201zM1071 909v-201h-380v-331h-224v331h-378v201h378v346h224v-346h380z" />
    <glyph glyph-name="uni00B2" unicode="&#xb2;" horiz-adv-x="668" 
d="M541 1075q32 0 49.5 -16.5t17.5 -44.5v-114h-555v63q0 18 7.5 39t24.5 38l204 200q22 21 40.5 45t32.5 48.5t22 48t8 44.5q0 31 -15.5 51.5t-46.5 20.5q-27 0 -44 -13.5t-29 -40.5q-15 -24 -34 -34t-58 -3l-110 17q9 59 33 102t61 71.5t86 42t106 13.5q61 0 108 -17.5
t78.5 -47.5t47.5 -70t16 -85q0 -41 -12.5 -75t-33 -65t-47.5 -60t-55 -59l-116 -118q30 9 59 14t54 5h101z" />
    <glyph glyph-name="uni00B3" unicode="&#xb3;" horiz-adv-x="668" 
d="M69 1424q9 59 33 102t60 71.5t82 42t99 13.5q59 0 104.5 -17t76.5 -44.5t47 -62.5t16 -71q0 -63 -24 -106t-80 -68q58 -20 87.5 -56t29.5 -94q0 -63 -23.5 -109t-61.5 -75.5t-86 -43.5t-96 -14q-53 0 -96.5 9.5t-78 33t-61 62.5t-46.5 98l85 35q33 13 61.5 6.5
t39.5 -28.5q12 -23 33 -39.5t52 -16.5q38 0 59 21.5t21 53.5q0 26 -6.5 43t-22 26.5t-42 13t-66.5 3.5v127q41 0 67 5.5t40.5 16t20 26t5.5 35.5q0 32 -15 51.5t-51 19.5q-30 0 -46.5 -12.5t-26.5 -35.5q-15 -28 -32 -37t-56 -2z" />
    <glyph glyph-name="acute" unicode="&#xb4;" horiz-adv-x="800" 
d="M769 1467l-253 -262q-20 -21 -39.5 -29.5t-50.5 -8.5h-166l140 244q15 28 36.5 42t65.5 14h267z" />
    <glyph glyph-name="mu" unicode="&#xb5;" horiz-adv-x="1329" 
d="M1261 188v-107q0 -17 -11.5 -33.5t-33.5 -29.5t-53 -21t-70 -8q-42 0 -81.5 12t-72.5 37t-58 62t-40 88q-52 -81 -117.5 -125.5t-150.5 -44.5q-107 0 -176 54q11 -44 15 -90.5t4 -87.5v-227h-137q-58 0 -89.5 29t-31.5 84v1251h276v-604q0 -86 39.5 -137.5t117.5 -51.5
q75 0 126 41t81 114v638h276v-718q0 -64 29 -94.5t80 -30.5h78z" />
    <glyph glyph-name="paragraph" unicode="&#xb6;" horiz-adv-x="1504" 
d="M1432 1224h-212v-1436h-241v1436h-217v-1436h-240v831q-104 0 -189 33t-145 89.5t-92.5 132t-32.5 159.5q0 92 32.5 169t92.5 132.5t145 86t189 30.5h910v-227z" />
    <glyph glyph-name="periodcentered" unicode="&#xb7;" horiz-adv-x="561" 
d="M75 595q0 42 16 79t44 64.5t65.5 43t79.5 15.5q43 0 80.5 -15.5t65.5 -43t44 -64.5t16 -79q0 -41 -16 -77.5t-44 -63.5t-65.5 -43t-80.5 -16q-42 0 -79.5 16t-65.5 43t-44 63.5t-16 77.5z" />
    <glyph glyph-name="periodcentered" unicode="&#x2219;" horiz-adv-x="561" 
d="M75 595q0 42 16 79t44 64.5t65.5 43t79.5 15.5q43 0 80.5 -15.5t65.5 -43t44 -64.5t16 -79q0 -41 -16 -77.5t-44 -63.5t-65.5 -43t-80.5 -16q-42 0 -79.5 16t-65.5 43t-44 63.5t-16 77.5z" />
    <glyph glyph-name="cedilla" unicode="&#xb8;" horiz-adv-x="800" 
d="M459 -56q47 -11 79 -26.5t51.5 -34.5t28 -42t8.5 -48q0 -35 -18.5 -62.5t-52 -46.5t-80.5 -29.5t-104 -10.5q-41 0 -76.5 4.5t-70.5 14.5l25 85q6 24 31 24q14 0 30 -5.5t42 -5.5q30 0 44 11t14 26q0 25 -33.5 36.5t-107.5 22.5l62 182h154z" />
    <glyph glyph-name="uni00B9" unicode="&#xb9;" horiz-adv-x="668" 
d="M581 1024v-124h-440v124h134v332l6 52l-65 -50q-14 -10 -27 -12t-24.5 0.5t-20.5 8.5t-14 12l-61 81l237 197h166v-621h109z" />
    <glyph glyph-name="ordmasculine" unicode="&#xba;" horiz-adv-x="800" 
d="M402 1470q73 0 134.5 -22t105.5 -63t68.5 -100t24.5 -133q0 -75 -24.5 -135t-68.5 -101.5t-105.5 -64t-134.5 -22.5q-75 0 -137 22.5t-106.5 64t-69 101.5t-24.5 135q0 74 24.5 133t69 100t106.5 63t137 22zM402 987q60 0 88.5 39t28.5 124q0 86 -28.5 124t-88.5 38
q-64 0 -93 -38t-29 -124q0 -85 29 -124t93 -39z" />
    <glyph glyph-name="guillemotright" unicode="&#xbb;" horiz-adv-x="933" 
d="M504 558v-35l-259 -399l-91 42q-35 16 -40.5 44t12.5 60l130 227q15 26 34 44q-19 18 -34 44l-130 226q-18 32 -12.5 60t40.5 45l91 41zM847 558v-35l-259 -399l-91 42q-35 16 -40.5 44t12.5 60l130 227q15 26 34 44q-19 18 -34 44l-130 226q-18 32 -12.5 60t40.5 45
l91 41z" />
    <glyph glyph-name="onequarter" unicode="&#xbc;" horiz-adv-x="1494" 
d="M467 77q-29 -45 -61.5 -61t-75.5 -16h-117l840 1362q27 42 61 65.5t82 23.5h118zM580 831v-124h-440v124h134v332l6 52l-65 -50q-14 -10 -27 -12t-24.5 0.5t-20.5 8.5t-14 12l-61 81l237 197h166v-621h109zM1168 288v141q0 25 1.5 54.5t5.5 61.5l-185 -257h178zM1420 288
v-97q0 -14 -10 -24.5t-27 -10.5h-51v-156h-164v156h-282q-26 0 -41 11.5t-19 28.5l-16 83l332 466h190v-457h88z" />
    <glyph glyph-name="onehalf" unicode="&#xbd;" horiz-adv-x="1479" 
d="M428 77q-29 -45 -61.5 -61t-75.5 -16h-117l840 1362q27 42 61 65.5t82 23.5h118zM581 831v-124h-440v124h134v332l6 52l-65 -50q-14 -10 -27 -12t-24.5 0.5t-20.5 8.5t-14 12l-61 81l237 197h166v-621h109zM1332 175q32 0 49.5 -16.5t17.5 -44.5v-114h-555v63
q0 18 7.5 39t24.5 38l204 200q22 21 40.5 45t32.5 48.5t22 48t8 44.5q0 31 -15.5 51.5t-46.5 20.5q-27 0 -44 -13.5t-29 -40.5q-15 -24 -34 -34t-58 -3l-110 17q9 59 33 102t61 71.5t86 42t106 13.5q61 0 108 -17.5t78.5 -47.5t47.5 -70t16 -85q0 -41 -12.5 -75t-33 -65
t-47.5 -60t-55 -59l-116 -118q30 9 59 14t54 5h101z" />
    <glyph glyph-name="threequarters" unicode="&#xbe;" horiz-adv-x="1505" 
d="M483 77q-29 -45 -61.5 -61t-75.5 -16h-117l840 1362q27 42 61 65.5t82 23.5h118zM90 1231q9 59 33 102t60 71.5t82 42t99 13.5q59 0 104.5 -17t76.5 -44.5t47 -62.5t16 -71q0 -63 -24 -106t-80 -68q58 -20 87.5 -56t29.5 -94q0 -63 -23.5 -109t-61.5 -75.5t-86 -43.5
t-96 -14q-53 0 -96.5 9.5t-78 33t-61 62.5t-46.5 98l85 35q33 13 61.5 6.5t39.5 -28.5q12 -23 33 -39.5t52 -16.5q38 0 59 21.5t21 53.5q0 26 -6.5 43t-22 26.5t-42 13t-66.5 3.5v127q41 0 67 5.5t40.5 16t20 26t5.5 35.5q0 32 -15 51.5t-51 19.5q-30 0 -46.5 -12.5
t-26.5 -35.5q-15 -28 -32 -37t-56 -2zM1182 288v141q0 25 1.5 54.5t5.5 61.5l-185 -257h178zM1434 288v-97q0 -14 -10 -24.5t-27 -10.5h-51v-156h-164v156h-282q-26 0 -41 11.5t-19 28.5l-16 83l332 466h190v-457h88z" />
    <glyph glyph-name="questiondown" unicode="&#xbf;" horiz-adv-x="923" 
d="M864 -200q-36 -31 -77.5 -58t-90.5 -47t-105 -31.5t-121 -11.5q-90 0 -163.5 23.5t-125 67t-80 106.5t-28.5 142q0 76 21.5 129t54 90t71.5 62.5t74 48t60.5 45.5t31.5 55l25 143h189l19 -162q6 -52 -12.5 -86.5t-51 -60.5t-72 -47t-73.5 -46.5t-57.5 -60t-23.5 -86.5
q0 -66 45.5 -105.5t120.5 -39.5q54 0 92 12t64.5 26.5t45.5 26.5t36 12q39 0 58 -33zM348 887q0 33 12.5 62.5t34.5 51t51.5 34t64.5 12.5q34 0 64 -12.5t52 -34t34.5 -51t12.5 -62.5q0 -34 -12.5 -63t-34.5 -50.5t-52 -33.5t-64 -12q-35 0 -64.5 12t-51.5 33.5t-34.5 50.5
t-12.5 63z" />
    <glyph glyph-name="Agrave" unicode="&#xc0;" horiz-adv-x="1404" 
d="M918 551l-157 444q-14 35 -29.5 82t-29.5 102q-14 -56 -29.5 -103.5t-29.5 -82.5l-156 -442h431zM1422 0h-233q-39 0 -63.5 18.5t-36.5 47.5l-98 277h-578l-98 -277q-10 -25 -35 -45.5t-63 -20.5h-235l567 1451h307zM544 1864q21 0 36.5 -1t28 -5.5t23.5 -13t23 -23.5
l213 -271h-200q-16 0 -28 0.5t-22 3t-19.5 8t-20.5 14.5l-322 288h288z" />
    <glyph glyph-name="Aacute" unicode="&#xc1;" horiz-adv-x="1404" 
d="M918 551l-157 444q-14 35 -29.5 82t-29.5 102q-14 -56 -29.5 -103.5t-29.5 -82.5l-156 -442h431zM1422 0h-233q-39 0 -63.5 18.5t-36.5 47.5l-98 277h-578l-98 -277q-10 -25 -35 -45.5t-63 -20.5h-235l567 1451h307zM1139 1864l-323 -286q-11 -9 -21 -14.5t-20.5 -8.5
t-23 -4t-27.5 -1h-200l200 271q11 15 21.5 23.5t23 13t28.5 5.5t37 1h305z" />
    <glyph glyph-name="Acircumflex" unicode="&#xc2;" horiz-adv-x="1404" 
d="M918 551l-157 444q-14 35 -29.5 82t-29.5 102q-14 -56 -29.5 -103.5t-29.5 -82.5l-156 -442h431zM1422 0h-233q-39 0 -63.5 18.5t-36.5 47.5l-98 277h-578l-98 -277q-10 -25 -35 -45.5t-63 -20.5h-235l567 1451h307zM1073 1550h-200q-16 0 -39.5 6t-48.5 35l-68 94
q-5 6 -8.5 12t-7.5 12q-4 -6 -7.5 -12t-8.5 -12l-68 -94q-25 -29 -48.5 -35t-39.5 -6h-191l242 276h250z" />
    <glyph glyph-name="Atilde" unicode="&#xc3;" horiz-adv-x="1404" 
d="M918 551l-157 444q-14 35 -29.5 82t-29.5 102q-14 -56 -29.5 -103.5t-29.5 -82.5l-156 -442h431zM1422 0h-233q-39 0 -63.5 18.5t-36.5 47.5l-98 277h-578l-98 -277q-10 -25 -35 -45.5t-63 -20.5h-235l567 1451h307zM825 1713q22 0 38 8.5t26 22t15 29.5t5 31h167
q0 -52 -14 -100t-41.5 -85t-68 -59.5t-93.5 -22.5t-91.5 15.5t-69 34t-56 34t-52.5 15.5q-22 0 -37.5 -9t-25 -23t-14.5 -30t-5 -31h-169q0 52 14.5 100.5t42 86t68 60t93.5 22.5t92 -15.5t69 -34t55.5 -34t51.5 -15.5z" />
    <glyph glyph-name="Adieresis" unicode="&#xc4;" horiz-adv-x="1404" 
d="M918 551l-157 444q-14 35 -29.5 82t-29.5 102q-14 -56 -29.5 -103.5t-29.5 -82.5l-156 -442h431zM1422 0h-233q-39 0 -63.5 18.5t-36.5 47.5l-98 277h-578l-98 -277q-10 -25 -35 -45.5t-63 -20.5h-235l567 1451h307zM621 1667q0 -29 -11.5 -54.5t-32 -44t-47.5 -29.5
t-57 -11q-28 0 -53 11t-44.5 29.5t-31 44t-11.5 54.5t11.5 55.5t31 46t44.5 31t53 11.5q30 0 57 -11.5t47.5 -31t32 -46t11.5 -55.5zM1069 1667q0 -29 -11.5 -54.5t-31 -44t-45.5 -29.5t-56 -11t-56 11t-45.5 29.5t-31 44t-11.5 54.5t11.5 55.5t31 46t45.5 31t56 11.5
t56 -11.5t45.5 -31t31 -46t11.5 -55.5z" />
    <glyph glyph-name="Aring" unicode="&#xc5;" horiz-adv-x="1404" 
d="M918 551l-157 444q-14 35 -29.5 82t-29.5 102q-14 -56 -29.5 -103.5t-29.5 -82.5l-156 -442h431zM1422 0h-233q-39 0 -63.5 18.5t-36.5 47.5l-98 277h-578l-98 -277q-10 -25 -35 -45.5t-63 -20.5h-235l567 1451h307zM487 1710q0 44 17.5 80.5t47 62.5t68 40t80.5 14
q44 0 84 -14t70 -40t47.5 -62.5t17.5 -80.5q0 -43 -17.5 -78.5t-47.5 -60.5t-70 -39t-84 -14q-42 0 -80.5 14t-68 39t-47 60.5t-17.5 78.5zM618 1710q0 -38 22 -61.5t64 -23.5q38 0 61 23.5t23 61.5q0 40 -23 63.5t-61 23.5q-42 0 -64 -23.5t-22 -63.5z" />
    <glyph glyph-name="AE" unicode="&#xc6;" horiz-adv-x="1868" 
d="M920 551l-82 678q-17 -55 -36 -102t-38 -88l-226 -488h382zM1124 1216l45 -373h488v-227h-460l46 -381h552v-235h-808l-42 343h-503l-128 -277q-14 -29 -43 -47.5t-69 -18.5h-228l727 1451h1094v-235h-671z" />
    <glyph glyph-name="Ccedilla" unicode="&#xc7;" horiz-adv-x="1318" 
d="M1301 212q-78 -100 -190 -157t-264 -68l-12 -43q47 -11 79 -26.5t51.5 -34.5t28 -42t8.5 -48q0 -35 -18.5 -62.5t-52 -46.5t-80.5 -29.5t-104 -10.5q-41 0 -76.5 4.5t-70.5 14.5l25 85q6 24 31 24q14 0 30 -5.5t42 -5.5q30 0 44 11t14 26q0 25 -33.5 36.5t-107.5 22.5
l45 131q-145 14 -260 74.5t-195.5 158t-123 226.5t-42.5 279q0 108 23.5 205.5t68.5 179.5t108.5 148t143.5 112.5t174.5 71t201.5 24.5q80 0 151.5 -14t133.5 -39t114.5 -60.5t94.5 -77.5l-101 -138q-9 -13 -23 -23t-38 -10t-48.5 17t-60 38t-89 38t-135.5 17
q-91 0 -167 -33t-130.5 -95.5t-84.5 -153.5t-30 -207q0 -117 32.5 -208.5t89 -154.5t132 -95.5t161.5 -32.5q51 0 92.5 5t77 17t67 31t63.5 48q11 9 23 15t26 6q25 0 42 -18z" />
    <glyph glyph-name="Egrave" unicode="&#xc8;" horiz-adv-x="1148" 
d="M454 1216v-373h484v-227h-484v-381h622v-235h-924v1451h924v-235h-622zM472 1864q21 0 36.5 -1t28 -5.5t23.5 -13t23 -23.5l213 -271h-200q-16 0 -28 0.5t-22 3t-19.5 8t-20.5 14.5l-322 288h288z" />
    <glyph glyph-name="Eacute" unicode="&#xc9;" horiz-adv-x="1148" 
d="M454 1216v-373h484v-227h-484v-381h622v-235h-924v1451h924v-235h-622zM1067 1864l-323 -286q-11 -9 -21 -14.5t-20.5 -8.5t-23 -4t-27.5 -1h-200l200 271q11 15 21.5 23.5t23 13t28.5 5.5t37 1h305z" />
    <glyph glyph-name="Ecircumflex" unicode="&#xca;" horiz-adv-x="1148" 
d="M454 1216v-373h484v-227h-484v-381h622v-235h-924v1451h924v-235h-622zM1002 1550h-200q-16 0 -39.5 6t-48.5 35l-68 94q-5 6 -8.5 12t-7.5 12q-4 -6 -7.5 -12t-8.5 -12l-68 -94q-25 -29 -48.5 -35t-39.5 -6h-191l242 276h250z" />
    <glyph glyph-name="Edieresis" unicode="&#xcb;" horiz-adv-x="1148" 
d="M454 1216v-373h484v-227h-484v-381h622v-235h-924v1451h924v-235h-622zM550 1667q0 -29 -11.5 -54.5t-32 -44t-47.5 -29.5t-57 -11q-28 0 -53 11t-44.5 29.5t-31 44t-11.5 54.5t11.5 55.5t31 46t44.5 31t53 11.5q30 0 57 -11.5t47.5 -31t32 -46t11.5 -55.5zM998 1667
q0 -29 -11.5 -54.5t-31 -44t-45.5 -29.5t-56 -11t-56 11t-45.5 29.5t-31 44t-11.5 54.5t11.5 55.5t31 46t45.5 31t56 11.5t56 -11.5t45.5 -31t31 -46t11.5 -55.5z" />
    <glyph glyph-name="Igrave" unicode="&#xcc;" horiz-adv-x="606" 
d="M454 0h-302v1451h302v-1451zM149 1864q21 0 36.5 -1t28 -5.5t23.5 -13t23 -23.5l213 -271h-200q-16 0 -28 0.5t-22 3t-19.5 8t-20.5 14.5l-322 288h288z" />
    <glyph glyph-name="Iacute" unicode="&#xcd;" horiz-adv-x="606" 
d="M454 0h-302v1451h302v-1451zM744 1864l-323 -286q-11 -9 -21 -14.5t-20.5 -8.5t-23 -4t-27.5 -1h-200l200 271q11 15 21.5 23.5t23 13t28.5 5.5t37 1h305z" />
    <glyph glyph-name="Icircumflex" unicode="&#xce;" horiz-adv-x="606" 
d="M454 0h-302v1451h302v-1451zM679 1550h-200q-16 0 -39.5 6t-48.5 35l-68 94q-5 6 -8.5 12t-7.5 12q-4 -6 -7.5 -12t-8.5 -12l-68 -94q-25 -29 -48.5 -35t-39.5 -6h-191l242 276h250z" />
    <glyph glyph-name="Idieresis" unicode="&#xcf;" horiz-adv-x="606" 
d="M454 0h-302v1451h302v-1451zM227 1667q0 -29 -11.5 -54.5t-32 -44t-47.5 -29.5t-57 -11q-28 0 -53 11t-44.5 29.5t-31 44t-11.5 54.5t11.5 55.5t31 46t44.5 31t53 11.5q30 0 57 -11.5t47.5 -31t32 -46t11.5 -55.5zM675 1667q0 -29 -11.5 -54.5t-31 -44t-45.5 -29.5
t-56 -11t-56 11t-45.5 29.5t-31 44t-11.5 54.5t11.5 55.5t31 46t45.5 31t56 11.5t56 -11.5t45.5 -31t31 -46t11.5 -55.5z" />
    <glyph glyph-name="Eth" unicode="&#xd0;" horiz-adv-x="1541" 
d="M730 235q102 0 182.5 33.5t136.5 97t86 154.5t30 206q0 114 -30 205t-86 154t-136.5 97t-182.5 34h-256v-403h256v-167h-256v-411h256zM730 1451q167 0 304 -54t234.5 -150.5t151 -229.5t53.5 -291q0 -159 -53.5 -292.5t-151 -229.5t-234.5 -150t-304 -54h-558v646h-174
v167h174v638h558z" />
    <glyph glyph-name="Ntilde" unicode="&#xd1;" horiz-adv-x="1547" 
d="M1395 1451v-1451h-155q-35 0 -59 11.5t-47 39.5l-723 920q3 -35 4.5 -69t1.5 -63v-839h-265v1451h158q19 0 32.5 -1.5t24.5 -7t21 -14.5t22 -24l728 -924q-4 38 -6 73.5t-2 67.5v830h265zM903 1713q22 0 38 8.5t26 22t15 29.5t5 31h167q0 -52 -14 -100t-41.5 -85
t-68 -59.5t-93.5 -22.5t-91.5 15.5t-69 34t-56 34t-52.5 15.5q-22 0 -37.5 -9t-25 -23t-14.5 -30t-5 -31h-169q0 52 14.5 100.5t42 86t68 60t93.5 22.5t92 -15.5t69 -34t55.5 -34t51.5 -15.5z" />
    <glyph glyph-name="Ograve" unicode="&#xd2;" horiz-adv-x="1622" 
d="M1554 726q0 -159 -53.5 -295t-151 -235t-234.5 -155.5t-304 -56.5t-304 56.5t-235 155.5t-151.5 235t-53.5 295t53.5 294.5t151.5 234.5t235 155.5t304 56.5t304 -56.5t234.5 -156t151 -235t53.5 -293.5zM1247 726q0 114 -30 204.5t-86.5 154t-137 97t-182.5 33.5
t-183 -33.5t-137.5 -97t-86.5 -154t-30 -204.5q0 -115 30 -205.5t86.5 -153.5t137.5 -96.5t183 -33.5t182.5 33.5t137 96.5t86.5 153.5t30 205.5zM656 1864q21 0 36.5 -1t28 -5.5t23.5 -13t23 -23.5l213 -271h-200q-16 0 -28 0.5t-22 3t-19.5 8t-20.5 14.5l-322 288h288z
" />
    <glyph glyph-name="Oacute" unicode="&#xd3;" horiz-adv-x="1622" 
d="M1554 726q0 -159 -53.5 -295t-151 -235t-234.5 -155.5t-304 -56.5t-304 56.5t-235 155.5t-151.5 235t-53.5 295t53.5 294.5t151.5 234.5t235 155.5t304 56.5t304 -56.5t234.5 -156t151 -235t53.5 -293.5zM1247 726q0 114 -30 204.5t-86.5 154t-137 97t-182.5 33.5
t-183 -33.5t-137.5 -97t-86.5 -154t-30 -204.5q0 -115 30 -205.5t86.5 -153.5t137.5 -96.5t183 -33.5t182.5 33.5t137 96.5t86.5 153.5t30 205.5zM1251 1864l-323 -286q-11 -9 -21 -14.5t-20.5 -8.5t-23 -4t-27.5 -1h-200l200 271q11 15 21.5 23.5t23 13t28.5 5.5t37 1h305z
" />
    <glyph glyph-name="Ocircumflex" unicode="&#xd4;" horiz-adv-x="1622" 
d="M1554 726q0 -159 -53.5 -295t-151 -235t-234.5 -155.5t-304 -56.5t-304 56.5t-235 155.5t-151.5 235t-53.5 295t53.5 294.5t151.5 234.5t235 155.5t304 56.5t304 -56.5t234.5 -156t151 -235t53.5 -293.5zM1247 726q0 114 -30 204.5t-86.5 154t-137 97t-182.5 33.5
t-183 -33.5t-137.5 -97t-86.5 -154t-30 -204.5q0 -115 30 -205.5t86.5 -153.5t137.5 -96.5t183 -33.5t182.5 33.5t137 96.5t86.5 153.5t30 205.5zM1185 1550h-200q-16 0 -39.5 6t-48.5 35l-68 94q-5 6 -8.5 12t-7.5 12q-4 -6 -7.5 -12t-8.5 -12l-68 -94q-25 -29 -48.5 -35
t-39.5 -6h-191l242 276h250z" />
    <glyph glyph-name="Otilde" unicode="&#xd5;" horiz-adv-x="1622" 
d="M1554 726q0 -159 -53.5 -295t-151 -235t-234.5 -155.5t-304 -56.5t-304 56.5t-235 155.5t-151.5 235t-53.5 295t53.5 294.5t151.5 234.5t235 155.5t304 56.5t304 -56.5t234.5 -156t151 -235t53.5 -293.5zM1247 726q0 114 -30 204.5t-86.5 154t-137 97t-182.5 33.5
t-183 -33.5t-137.5 -97t-86.5 -154t-30 -204.5q0 -115 30 -205.5t86.5 -153.5t137.5 -96.5t183 -33.5t182.5 33.5t137 96.5t86.5 153.5t30 205.5zM937 1713q22 0 38 8.5t26 22t15 29.5t5 31h167q0 -52 -14 -100t-41.5 -85t-68 -59.5t-93.5 -22.5t-91.5 15.5t-69 34t-56 34
t-52.5 15.5q-22 0 -37.5 -9t-25 -23t-14.5 -30t-5 -31h-169q0 52 14.5 100.5t42 86t68 60t93.5 22.5t92 -15.5t69 -34t55.5 -34t51.5 -15.5z" />
    <glyph glyph-name="Odieresis" unicode="&#xd6;" horiz-adv-x="1622" 
d="M1554 726q0 -159 -53.5 -295t-151 -235t-234.5 -155.5t-304 -56.5t-304 56.5t-235 155.5t-151.5 235t-53.5 295t53.5 294.5t151.5 234.5t235 155.5t304 56.5t304 -56.5t234.5 -156t151 -235t53.5 -293.5zM1247 726q0 114 -30 204.5t-86.5 154t-137 97t-182.5 33.5
t-183 -33.5t-137.5 -97t-86.5 -154t-30 -204.5q0 -115 30 -205.5t86.5 -153.5t137.5 -96.5t183 -33.5t182.5 33.5t137 96.5t86.5 153.5t30 205.5zM733 1667q0 -29 -11.5 -54.5t-32 -44t-47.5 -29.5t-57 -11q-28 0 -53 11t-44.5 29.5t-31 44t-11.5 54.5t11.5 55.5t31 46
t44.5 31t53 11.5q30 0 57 -11.5t47.5 -31t32 -46t11.5 -55.5zM1181 1667q0 -29 -11.5 -54.5t-31 -44t-45.5 -29.5t-56 -11t-56 11t-45.5 29.5t-31 44t-11.5 54.5t11.5 55.5t31 46t45.5 31t56 11.5t56 -11.5t45.5 -31t31 -46t11.5 -55.5z" />
    <glyph glyph-name="multiply" unicode="&#xd7;" horiz-adv-x="1160" 
d="M915 195l-333 333l-336 -335l-146 142l337 337l-319 319l145 143l318 -318l316 316l147 -143l-318 -317l335 -335z" />
    <glyph glyph-name="Oslash" unicode="&#xd8;" horiz-adv-x="1622" 
d="M619 274q86 -37 192 -37q102 0 182.5 33.5t137 96.5t86.5 153.5t30 205.5q0 186 -78 308zM1035 1161q-47 26 -103 40t-121 14q-102 0 -183 -33.5t-137.5 -97t-86.5 -154t-30 -204.5q0 -107 25.5 -192t74.5 -148zM1337 1267q104 -100 160.5 -238.5t56.5 -302.5
q0 -159 -53.5 -295t-151 -235t-234.5 -155.5t-304 -56.5q-97 0 -184 19.5t-163 55.5l-68 -93q-32 -43 -76.5 -60.5t-88.5 -17.5h-117l197 272q-116 101 -180 246t-64 320q0 159 53.5 294.5t151.5 234.5t235 155.5t304 56.5q108 0 203 -23.5t176 -68.5l51 70q15 20 27 33.5
t25.5 22t30.5 12.5t41 4h153z" />
    <glyph glyph-name="Ugrave" unicode="&#xd9;" horiz-adv-x="1491" 
d="M746 240q73 0 131 24.5t98 69.5t61 109t21 144v864h300v-864q0 -132 -42.5 -242.5t-121.5 -190.5t-192 -125t-255 -45t-255.5 45t-192.5 125t-121.5 190.5t-42.5 242.5v864h300v-864q0 -80 21 -144t61 -109t98 -69.5t132 -24.5zM588 1864q21 0 36.5 -1t28 -5.5t23.5 -13
t23 -23.5l213 -271h-200q-16 0 -28 0.5t-22 3t-19.5 8t-20.5 14.5l-322 288h288z" />
    <glyph glyph-name="Uacute" unicode="&#xda;" horiz-adv-x="1491" 
d="M746 240q73 0 131 24.5t98 69.5t61 109t21 144v864h300v-864q0 -132 -42.5 -242.5t-121.5 -190.5t-192 -125t-255 -45t-255.5 45t-192.5 125t-121.5 190.5t-42.5 242.5v864h300v-864q0 -80 21 -144t61 -109t98 -69.5t132 -24.5zM1183 1864l-323 -286q-11 -9 -21 -14.5
t-20.5 -8.5t-23 -4t-27.5 -1h-200l200 271q11 15 21.5 23.5t23 13t28.5 5.5t37 1h305z" />
    <glyph glyph-name="Ucircumflex" unicode="&#xdb;" horiz-adv-x="1491" 
d="M746 240q73 0 131 24.5t98 69.5t61 109t21 144v864h300v-864q0 -132 -42.5 -242.5t-121.5 -190.5t-192 -125t-255 -45t-255.5 45t-192.5 125t-121.5 190.5t-42.5 242.5v864h300v-864q0 -80 21 -144t61 -109t98 -69.5t132 -24.5zM1118 1550h-200q-16 0 -39.5 6t-48.5 35
l-68 94q-5 6 -8.5 12t-7.5 12q-4 -6 -7.5 -12t-8.5 -12l-68 -94q-25 -29 -48.5 -35t-39.5 -6h-191l242 276h250z" />
    <glyph glyph-name="Udieresis" unicode="&#xdc;" horiz-adv-x="1491" 
d="M746 240q73 0 131 24.5t98 69.5t61 109t21 144v864h300v-864q0 -132 -42.5 -242.5t-121.5 -190.5t-192 -125t-255 -45t-255.5 45t-192.5 125t-121.5 190.5t-42.5 242.5v864h300v-864q0 -80 21 -144t61 -109t98 -69.5t132 -24.5zM666 1667q0 -29 -11.5 -54.5t-32 -44
t-47.5 -29.5t-57 -11q-28 0 -53 11t-44.5 29.5t-31 44t-11.5 54.5t11.5 55.5t31 46t44.5 31t53 11.5q30 0 57 -11.5t47.5 -31t32 -46t11.5 -55.5zM1114 1667q0 -29 -11.5 -54.5t-31 -44t-45.5 -29.5t-56 -11t-56 11t-45.5 29.5t-31 44t-11.5 54.5t11.5 55.5t31 46t45.5 31
t56 11.5t56 -11.5t45.5 -31t31 -46t11.5 -55.5z" />
    <glyph glyph-name="Yacute" unicode="&#xdd;" horiz-adv-x="1316" 
d="M808 558v-558h-300v558l-527 893h264q39 0 62.5 -18.5t37.5 -47.5l238 -457q24 -46 43.5 -86t34.5 -80q14 40 32.5 80.5t41.5 85.5l236 457q12 24 36 45t62 21h266zM1098 1864l-323 -286q-11 -9 -21 -14.5t-20.5 -8.5t-23 -4t-27.5 -1h-200l200 271q11 15 21.5 23.5
t23 13t28.5 5.5t37 1h305z" />
    <glyph glyph-name="Thorn" unicode="&#xde;" horiz-adv-x="1246" 
d="M642 487q141 0 206.5 67.5t65.5 186.5q0 54 -16.5 98.5t-50 76t-84.5 48.5t-121 17h-190v-494h190zM642 1209q149 0 257.5 -35t178.5 -97.5t103.5 -148.5t33.5 -187q0 -107 -35 -196t-106 -153t-179 -99.5t-253 -35.5h-190v-257h-300v1451h300v-242h190z" />
    <glyph glyph-name="germandbls" unicode="&#xdf;" horiz-adv-x="1224" 
d="M653 1477q82 0 147.5 -16.5t115.5 -43.5t85.5 -63t58.5 -74.5t33.5 -77.5t10.5 -73q0 -57 -19 -97.5t-47 -70.5t-61 -52.5t-61 -42.5t-47 -41.5t-19 -48.5q0 -31 24 -54.5t60.5 -46.5t78.5 -50t78.5 -65.5t60.5 -92.5t24 -130q0 -87 -32.5 -153.5t-88 -110.5
t-128.5 -66.5t-154 -22.5q-45 0 -90.5 9.5t-87.5 27t-80 40.5t-68 50l64 103q11 18 27.5 28t42.5 10q25 0 46.5 -12.5t45.5 -27t53.5 -27t71.5 -12.5q52 0 86 33.5t34 87.5q0 44 -26.5 73.5t-66 54t-86 48.5t-86 57t-66 79t-26.5 116q0 59 20.5 100.5t51 73t66 57t66 51
t51 55t20.5 69.5q0 33 -11 61t-35 48.5t-61 32t-88 11.5q-129 0 -190.5 -80.5t-61.5 -228.5v-972h-275v981q0 106 37 197t106.5 157.5t169.5 104t226 37.5z" />
    <glyph glyph-name="agrave" unicode="&#xe0;" horiz-adv-x="1024" 
d="M653 431q-101 -5 -168 -17.5t-106.5 -32.5t-56 -45.5t-16.5 -55.5q0 -60 33.5 -85t93.5 -25q69 0 119.5 24.5t100.5 76.5v160zM91 888q91 82 201 122.5t238 40.5q92 0 164.5 -30t123 -83.5t77.5 -127.5t27 -162v-648h-126q-39 0 -59.5 11t-33.5 46l-22 66
q-39 -34 -75.5 -60t-75.5 -43.5t-83.5 -26.5t-99.5 -9q-68 0 -124 18t-96.5 53.5t-62.5 88.5t-22 122q0 57 29 114t99.5 103.5t188 77t294.5 34.5v53q0 97 -41 142.5t-118 45.5q-57 0 -95 -13.5t-66.5 -29t-53.5 -29t-58 -13.5q-29 0 -48.5 14.5t-32.5 34.5zM421 1467
q43 0 64.5 -14t37.5 -42l139 -244h-156q-31 0 -50.5 8.5t-39.5 29.5l-253 262h258z" />
    <glyph glyph-name="aacute" unicode="&#xe1;" horiz-adv-x="1024" 
d="M653 431q-101 -5 -168 -17.5t-106.5 -32.5t-56 -45.5t-16.5 -55.5q0 -60 33.5 -85t93.5 -25q69 0 119.5 24.5t100.5 76.5v160zM91 888q91 82 201 122.5t238 40.5q92 0 164.5 -30t123 -83.5t77.5 -127.5t27 -162v-648h-126q-39 0 -59.5 11t-33.5 46l-22 66
q-39 -34 -75.5 -60t-75.5 -43.5t-83.5 -26.5t-99.5 -9q-68 0 -124 18t-96.5 53.5t-62.5 88.5t-22 122q0 57 29 114t99.5 103.5t188 77t294.5 34.5v53q0 97 -41 142.5t-118 45.5q-57 0 -95 -13.5t-66.5 -29t-53.5 -29t-58 -13.5q-29 0 -48.5 14.5t-32.5 34.5zM874 1467
l-253 -262q-20 -21 -39.5 -29.5t-50.5 -8.5h-166l140 244q15 28 36.5 42t65.5 14h267z" />
    <glyph glyph-name="acircumflex" unicode="&#xe2;" horiz-adv-x="1024" 
d="M653 431q-101 -5 -168 -17.5t-106.5 -32.5t-56 -45.5t-16.5 -55.5q0 -60 33.5 -85t93.5 -25q69 0 119.5 24.5t100.5 76.5v160zM91 888q91 82 201 122.5t238 40.5q92 0 164.5 -30t123 -83.5t77.5 -127.5t27 -162v-648h-126q-39 0 -59.5 11t-33.5 46l-22 66
q-39 -34 -75.5 -60t-75.5 -43.5t-83.5 -26.5t-99.5 -9q-68 0 -124 18t-96.5 53.5t-62.5 88.5t-22 122q0 57 29 114t99.5 103.5t188 77t294.5 34.5v53q0 97 -41 142.5t-118 45.5q-57 0 -95 -13.5t-66.5 -29t-53.5 -29t-58 -13.5q-29 0 -48.5 14.5t-32.5 34.5zM866 1168h-184
q-16 0 -31 5.5t-31 20.5l-88 95q-5 5 -11 11.5t-11 14.5q-12 -15 -23 -26l-90 -95q-28 -26 -62 -26h-191l232 283h258z" />
    <glyph glyph-name="atilde" unicode="&#xe3;" horiz-adv-x="1024" 
d="M653 431q-101 -5 -168 -17.5t-106.5 -32.5t-56 -45.5t-16.5 -55.5q0 -60 33.5 -85t93.5 -25q69 0 119.5 24.5t100.5 76.5v160zM91 888q91 82 201 122.5t238 40.5q92 0 164.5 -30t123 -83.5t77.5 -127.5t27 -162v-648h-126q-39 0 -59.5 11t-33.5 46l-22 66
q-39 -34 -75.5 -60t-75.5 -43.5t-83.5 -26.5t-99.5 -9q-68 0 -124 18t-96.5 53.5t-62.5 88.5t-22 122q0 57 29 114t99.5 103.5t188 77t294.5 34.5v53q0 97 -41 142.5t-118 45.5q-57 0 -95 -13.5t-66.5 -29t-53.5 -29t-58 -13.5q-29 0 -48.5 14.5t-32.5 34.5zM611 1372
q27 0 43 14.5t16 56.5h168q0 -59 -16.5 -107t-45.5 -81.5t-69 -52t-86 -18.5q-36 0 -67.5 12.5t-59 27t-50.5 27t-41 12.5q-27 0 -42.5 -15.5t-15.5 -57.5h-170q0 59 16.5 107t46 82t69 52.5t85.5 18.5q37 0 69 -12t59 -27t49.5 -27t41.5 -12z" />
    <glyph glyph-name="adieresis" unicode="&#xe4;" horiz-adv-x="1024" 
d="M653 431q-101 -5 -168 -17.5t-106.5 -32.5t-56 -45.5t-16.5 -55.5q0 -60 33.5 -85t93.5 -25q69 0 119.5 24.5t100.5 76.5v160zM91 888q91 82 201 122.5t238 40.5q92 0 164.5 -30t123 -83.5t77.5 -127.5t27 -162v-648h-126q-39 0 -59.5 11t-33.5 46l-22 66
q-39 -34 -75.5 -60t-75.5 -43.5t-83.5 -26.5t-99.5 -9q-68 0 -124 18t-96.5 53.5t-62.5 88.5t-22 122q0 57 29 114t99.5 103.5t188 77t294.5 34.5v53q0 97 -41 142.5t-118 45.5q-57 0 -95 -13.5t-66.5 -29t-53.5 -29t-58 -13.5q-29 0 -48.5 14.5t-32.5 34.5zM446 1294
q0 -30 -12 -56t-32.5 -45.5t-48 -30.5t-58.5 -11q-29 0 -55.5 11t-46.5 30.5t-32 45.5t-12 56t12 57t32 47.5t46.5 32t55.5 11.5q31 0 58.5 -11.5t48 -32t32.5 -47.5t12 -57zM861 1294q0 -30 -12 -56t-32 -45.5t-47.5 -30.5t-58.5 -11q-30 0 -57 11t-47 30.5t-31.5 45.5
t-11.5 56t11.5 57t31.5 47.5t47 32t57 11.5q31 0 58.5 -11.5t47.5 -32t32 -47.5t12 -57z" />
    <glyph glyph-name="aring" unicode="&#xe5;" horiz-adv-x="1024" 
d="M653 431q-101 -5 -168 -17.5t-106.5 -32.5t-56 -45.5t-16.5 -55.5q0 -60 33.5 -85t93.5 -25q69 0 119.5 24.5t100.5 76.5v160zM91 888q91 82 201 122.5t238 40.5q92 0 164.5 -30t123 -83.5t77.5 -127.5t27 -162v-648h-126q-39 0 -59.5 11t-33.5 46l-22 66
q-39 -34 -75.5 -60t-75.5 -43.5t-83.5 -26.5t-99.5 -9q-68 0 -124 18t-96.5 53.5t-62.5 88.5t-22 122q0 57 29 114t99.5 103.5t188 77t294.5 34.5v53q0 97 -41 142.5t-118 45.5q-57 0 -95 -13.5t-66.5 -29t-53.5 -29t-58 -13.5q-29 0 -48.5 14.5t-32.5 34.5zM275 1329
q0 48 19 87.5t50.5 67t73 43t87.5 15.5q47 0 90 -15.5t75.5 -43t51.5 -67t19 -87.5q0 -47 -19 -85t-51.5 -65t-75.5 -42t-90 -15q-46 0 -87.5 15t-73 42t-50.5 65t-19 85zM423 1329q0 -38 22 -61.5t64 -23.5q38 0 61 23.5t23 61.5q0 40 -23 63.5t-61 23.5q-42 0 -64 -23.5
t-22 -63.5z" />
    <glyph glyph-name="ae" unicode="&#xe6;" horiz-adv-x="1623" 
d="M655 454q-101 -5 -168 -20t-106.5 -36.5t-56 -49t-16.5 -57.5q0 -62 34 -91.5t97 -29.5q46 0 85.5 14t68.5 44t45.5 77.5t16.5 115.5v33zM1319 617q0 44 -10.5 86.5t-33 75.5t-58 53.5t-84.5 20.5q-97 0 -149.5 -61.5t-66.5 -174.5h402zM918 453q15 -134 80.5 -196.5
t166.5 -62.5q67 0 108.5 12.5t68.5 27.5t45.5 27.5t41.5 12.5q38 0 56 -24l74 -93q-44 -51 -96 -84.5t-107 -53t-110.5 -27t-107.5 -7.5q-53 0 -103.5 11.5t-96.5 35t-86.5 60t-71.5 86.5q-31 -51 -75 -87.5t-97.5 -60.5t-113 -35t-122.5 -11q-77 0 -137.5 19.5t-103 57
t-65 92t-22.5 124.5q0 57 29 116t99.5 107.5t188 81t294.5 36.5v30q0 97 -41 146.5t-118 49.5q-57 0 -95 -14.5t-66.5 -32t-53.5 -32t-58 -14.5q-29 0 -48.5 14.5t-32.5 34.5l-49 88q91 82 190 122.5t219 40.5q115 0 189 -41.5t115 -114.5q57 71 142 111.5t197 40.5
q90 0 166.5 -34t132.5 -98t88 -154.5t32 -203.5q0 -31 -2.5 -51t-9.5 -32t-18.5 -16.5t-30.5 -4.5h-585z" />
    <glyph glyph-name="ccedilla" unicode="&#xe7;" horiz-adv-x="970" 
d="M943 157q-36 -42 -76 -71.5t-82.5 -49.5t-87 -31t-88.5 -16l-13 -45q48 -11 80 -26.5t51.5 -34.5t28 -42t8.5 -48q0 -35 -18.5 -62.5t-52 -46.5t-80.5 -29.5t-104 -10.5q-41 0 -76.5 4.5t-71.5 14.5l26 85q6 24 31 24q14 0 30 -5.5t42 -5.5q30 0 44 11t14 26
q0 25 -33.5 36.5t-107.5 22.5l46 134q-83 13 -154.5 54t-124.5 108t-83.5 158.5t-30.5 205.5q0 113 33 210t97 168t158.5 111.5t218.5 40.5q118 0 207 -38t160 -110l-72 -98q-12 -16 -24 -24.5t-34 -8.5q-20 0 -38.5 11.5t-42.5 25t-57 25t-82 11.5q-62 0 -107.5 -22.5
t-75.5 -64.5t-44.5 -102t-14.5 -135q0 -158 63.5 -242t173.5 -84q38 0 65.5 6.5t48 16.5t35.5 22t28.5 22t27 16.5t30.5 6.5q32 0 50 -24z" />
    <glyph glyph-name="egrave" unicode="&#xe8;" horiz-adv-x="1072" 
d="M768 637q0 43 -11.5 82t-36.5 69t-63 47.5t-91 17.5q-99 0 -155 -56t-73 -160h430zM334 473q13 -145 82.5 -212t181.5 -67q57 0 98.5 13.5t73 30t57 30t50.5 13.5q32 0 50 -24l80 -100q-44 -51 -97 -84.5t-110 -53t-115 -27t-112 -7.5q-108 0 -201.5 35.5t-163 105
t-109.5 172.5t-40 239q0 105 34.5 198t99.5 162t158 109.5t210 40.5q99 0 182.5 -31.5t144 -91.5t94 -147.5t33.5 -199.5q0 -31 -3 -51t-10 -32t-19 -16.5t-31 -4.5h-618zM483 1467q43 0 64.5 -14t37.5 -42l139 -244h-156q-31 0 -50.5 8.5t-39.5 29.5l-253 262h258z" />
    <glyph glyph-name="eacute" unicode="&#xe9;" horiz-adv-x="1072" 
d="M768 637q0 43 -11.5 82t-36.5 69t-63 47.5t-91 17.5q-99 0 -155 -56t-73 -160h430zM334 473q13 -145 82.5 -212t181.5 -67q57 0 98.5 13.5t73 30t57 30t50.5 13.5q32 0 50 -24l80 -100q-44 -51 -97 -84.5t-110 -53t-115 -27t-112 -7.5q-108 0 -201.5 35.5t-163 105
t-109.5 172.5t-40 239q0 105 34.5 198t99.5 162t158 109.5t210 40.5q99 0 182.5 -31.5t144 -91.5t94 -147.5t33.5 -199.5q0 -31 -3 -51t-10 -32t-19 -16.5t-31 -4.5h-618zM936 1467l-253 -262q-20 -21 -39.5 -29.5t-50.5 -8.5h-166l140 244q15 28 36.5 42t65.5 14h267z" />
    <glyph glyph-name="ecircumflex" unicode="&#xea;" horiz-adv-x="1072" 
d="M768 637q0 43 -11.5 82t-36.5 69t-63 47.5t-91 17.5q-99 0 -155 -56t-73 -160h430zM334 473q13 -145 82.5 -212t181.5 -67q57 0 98.5 13.5t73 30t57 30t50.5 13.5q32 0 50 -24l80 -100q-44 -51 -97 -84.5t-110 -53t-115 -27t-112 -7.5q-108 0 -201.5 35.5t-163 105
t-109.5 172.5t-40 239q0 105 34.5 198t99.5 162t158 109.5t210 40.5q99 0 182.5 -31.5t144 -91.5t94 -147.5t33.5 -199.5q0 -31 -3 -51t-10 -32t-19 -16.5t-31 -4.5h-618zM928 1168h-184q-16 0 -31 5.5t-31 20.5l-88 95q-5 5 -11 11.5t-11 14.5q-12 -15 -23 -26l-90 -95
q-28 -26 -62 -26h-191l232 283h258z" />
    <glyph glyph-name="edieresis" unicode="&#xeb;" horiz-adv-x="1072" 
d="M768 637q0 43 -11.5 82t-36.5 69t-63 47.5t-91 17.5q-99 0 -155 -56t-73 -160h430zM334 473q13 -145 82.5 -212t181.5 -67q57 0 98.5 13.5t73 30t57 30t50.5 13.5q32 0 50 -24l80 -100q-44 -51 -97 -84.5t-110 -53t-115 -27t-112 -7.5q-108 0 -201.5 35.5t-163 105
t-109.5 172.5t-40 239q0 105 34.5 198t99.5 162t158 109.5t210 40.5q99 0 182.5 -31.5t144 -91.5t94 -147.5t33.5 -199.5q0 -31 -3 -51t-10 -32t-19 -16.5t-31 -4.5h-618zM508 1294q0 -30 -12 -56t-32.5 -45.5t-48 -30.5t-58.5 -11q-29 0 -55.5 11t-46.5 30.5t-32 45.5
t-12 56t12 57t32 47.5t46.5 32t55.5 11.5q31 0 58.5 -11.5t48 -32t32.5 -47.5t12 -57zM923 1294q0 -30 -12 -56t-32 -45.5t-47.5 -30.5t-58.5 -11q-30 0 -57 11t-47 30.5t-31.5 45.5t-11.5 56t11.5 57t31.5 47.5t47 32t57 11.5q31 0 58.5 -11.5t47.5 -32t32 -47.5t12 -57z
" />
    <glyph glyph-name="igrave" unicode="&#xec;" horiz-adv-x="520" 
d="M398 1031v-1031h-276v1031h276zM184 1467q43 0 64.5 -14t37.5 -42l139 -244h-156q-31 0 -50.5 8.5t-39.5 29.5l-253 262h258z" />
    <glyph glyph-name="iacute" unicode="&#xed;" horiz-adv-x="521" 
d="M399 1031v-1031h-276v1031h276zM638 1467l-253 -262q-20 -21 -39.5 -29.5t-50.5 -8.5h-166l140 244q15 28 36.5 42t65.5 14h267z" />
    <glyph glyph-name="icircumflex" unicode="&#xee;" horiz-adv-x="520" 
d="M398 1031v-1031h-276v1031h276zM629 1168h-184q-16 0 -31 5.5t-31 20.5l-88 95q-5 5 -11 11.5t-11 14.5q-12 -15 -23 -26l-90 -95q-28 -26 -62 -26h-191l232 283h258z" />
    <glyph glyph-name="idieresis" unicode="&#xef;" horiz-adv-x="520" 
d="M398 1031v-1031h-276v1031h276zM240 1294q0 -30 -12 -56t-32.5 -45.5t-48 -30.5t-58.5 -11q-29 0 -55 11t-46 30.5t-32 45.5t-12 56t12 57t32 47.5t46 32t55 11.5q31 0 58.5 -11.5t48 -32t32.5 -47.5t12 -57zM592 1294q0 -30 -11.5 -56t-32 -45.5t-47.5 -30.5t-58 -11
q-30 0 -57 11t-47 30.5t-31.5 45.5t-11.5 56t11.5 57t31.5 47.5t47 32t57 11.5q31 0 58 -11.5t47.5 -32t32 -47.5t11.5 -57z" />
    <glyph glyph-name="eth" unicode="&#xf0;" horiz-adv-x="1145" 
d="M560 191q52 0 97 19t79.5 62.5t55.5 114.5t24 175q-15 34 -37 64.5t-51.5 52.5t-67.5 35t-86 13q-60 0 -105.5 -19.5t-76 -54t-46.5 -80.5t-16 -98q0 -69 18 -122t49 -89t73 -54.5t90 -18.5zM834 1209q112 -102 177 -250.5t65 -349.5q0 -148 -34.5 -264t-101 -196
t-164 -122t-223.5 -42q-106 0 -197 33.5t-157.5 96.5t-104.5 154.5t-38 207.5q0 91 33 173.5t93.5 145.5t145.5 100t189 37q93 0 168 -31t134 -90q-21 94 -67 164t-127 124l-205 -126l-52 86q-17 26 -9.5 50t34.5 38l63 35q-26 9 -55 18.5t-61 17.5q-18 5 -32.5 15t-22.5 26
t-8.5 37t9.5 48l32 94q103 -17 198 -48.5t179 -80.5l179 110l55 -87q15 -24 8.5 -47t-29.5 -37z" />
    <glyph glyph-name="ntilde" unicode="&#xf1;" horiz-adv-x="1134" 
d="M370 911q31 30 64.5 55t71 43t81 28t94.5 10q84 0 149 -29t109.5 -81t67 -124t22.5 -158v-655h-275v655q0 86 -40 133.5t-118 47.5q-58 0 -109 -25t-97 -70v-741h-276v1031h170q52 0 69 -48zM684 1372q27 0 43 14.5t16 56.5h168q0 -59 -16.5 -107t-45.5 -81.5t-69 -52
t-86 -18.5q-36 0 -67.5 12.5t-59 27t-50.5 27t-41 12.5q-27 0 -42.5 -15.5t-15.5 -57.5h-170q0 59 16.5 107t46 82t69 52.5t85.5 18.5q37 0 69 -12t59 -27t49.5 -27t41.5 -12z" />
    <glyph glyph-name="ograve" unicode="&#xf2;" horiz-adv-x="1155" 
d="M579 1047q116 0 211 -37t163 -105.5t105 -166.5t37 -221t-37 -221.5t-105 -167.5t-163 -106t-211 -37q-117 0 -212.5 37t-163.5 106t-105.5 167.5t-37.5 221.5t37.5 221t105.5 166.5t163.5 105.5t212.5 37zM579 192q118 0 175 81.5t57 242.5q0 160 -57 241.5t-175 81.5
q-121 0 -178 -81.5t-57 -241.5q0 -161 57 -242.5t178 -81.5zM495 1467q43 0 64.5 -14t37.5 -42l139 -244h-156q-31 0 -50.5 8.5t-39.5 29.5l-253 262h258z" />
    <glyph glyph-name="oacute" unicode="&#xf3;" horiz-adv-x="1155" 
d="M579 1047q116 0 211 -37t163 -105.5t105 -166.5t37 -221t-37 -221.5t-105 -167.5t-163 -106t-211 -37q-117 0 -212.5 37t-163.5 106t-105.5 167.5t-37.5 221.5t37.5 221t105.5 166.5t163.5 105.5t212.5 37zM579 192q118 0 175 81.5t57 242.5q0 160 -57 241.5t-175 81.5
q-121 0 -178 -81.5t-57 -241.5q0 -161 57 -242.5t178 -81.5zM948 1467l-253 -262q-20 -21 -39.5 -29.5t-50.5 -8.5h-166l140 244q15 28 36.5 42t65.5 14h267z" />
    <glyph glyph-name="ocircumflex" unicode="&#xf4;" horiz-adv-x="1155" 
d="M579 1047q116 0 211 -37t163 -105.5t105 -166.5t37 -221t-37 -221.5t-105 -167.5t-163 -106t-211 -37q-117 0 -212.5 37t-163.5 106t-105.5 167.5t-37.5 221.5t37.5 221t105.5 166.5t163.5 105.5t212.5 37zM579 192q118 0 175 81.5t57 242.5q0 160 -57 241.5t-175 81.5
q-121 0 -178 -81.5t-57 -241.5q0 -161 57 -242.5t178 -81.5zM940 1168h-184q-16 0 -31 5.5t-31 20.5l-88 95q-5 5 -11 11.5t-11 14.5q-12 -15 -23 -26l-90 -95q-28 -26 -62 -26h-191l232 283h258z" />
    <glyph glyph-name="otilde" unicode="&#xf5;" horiz-adv-x="1155" 
d="M579 1047q116 0 211 -37t163 -105.5t105 -166.5t37 -221t-37 -221.5t-105 -167.5t-163 -106t-211 -37q-117 0 -212.5 37t-163.5 106t-105.5 167.5t-37.5 221.5t37.5 221t105.5 166.5t163.5 105.5t212.5 37zM579 192q118 0 175 81.5t57 242.5q0 160 -57 241.5t-175 81.5
q-121 0 -178 -81.5t-57 -241.5q0 -161 57 -242.5t178 -81.5zM685 1372q27 0 43 14.5t16 56.5h168q0 -59 -16.5 -107t-45.5 -81.5t-69 -52t-86 -18.5q-36 0 -67.5 12.5t-59 27t-50.5 27t-41 12.5q-27 0 -42.5 -15.5t-15.5 -57.5h-170q0 59 16.5 107t46 82t69 52.5t85.5 18.5
q37 0 69 -12t59 -27t49.5 -27t41.5 -12z" />
    <glyph glyph-name="odieresis" unicode="&#xf6;" horiz-adv-x="1155" 
d="M579 1047q116 0 211 -37t163 -105.5t105 -166.5t37 -221t-37 -221.5t-105 -167.5t-163 -106t-211 -37q-117 0 -212.5 37t-163.5 106t-105.5 167.5t-37.5 221.5t37.5 221t105.5 166.5t163.5 105.5t212.5 37zM579 192q118 0 175 81.5t57 242.5q0 160 -57 241.5t-175 81.5
q-121 0 -178 -81.5t-57 -241.5q0 -161 57 -242.5t178 -81.5zM520 1294q0 -30 -12 -56t-32.5 -45.5t-48 -30.5t-58.5 -11q-29 0 -55.5 11t-46.5 30.5t-32 45.5t-12 56t12 57t32 47.5t46.5 32t55.5 11.5q31 0 58.5 -11.5t48 -32t32.5 -47.5t12 -57zM935 1294q0 -30 -12 -56
t-32 -45.5t-47.5 -30.5t-58.5 -11q-30 0 -57 11t-47 30.5t-31.5 45.5t-11.5 56t11.5 57t31.5 47.5t47 32t57 11.5q31 0 58.5 -11.5t47.5 -32t32 -47.5t12 -57z" />
    <glyph glyph-name="divide" unicode="&#xf7;" horiz-adv-x="1160" 
d="M89 772h982v-201h-982v201zM416 1027q0 33 12.5 62.5t34.5 51t51.5 34t64.5 12.5q34 0 63.5 -12.5t51.5 -34t35 -51t13 -62.5q0 -34 -13 -63t-35 -50.5t-51.5 -33.5t-63.5 -12q-35 0 -64.5 12t-51.5 33.5t-34.5 50.5t-12.5 63zM416 315q0 33 12.5 62.5t34.5 51t51.5 34
t64.5 12.5q34 0 63.5 -12.5t51.5 -34t35 -51t13 -62.5q0 -34 -13 -63t-35 -50.5t-51.5 -33.5t-63.5 -12q-35 0 -64.5 12t-51.5 33.5t-34.5 50.5t-12.5 63z" />
    <glyph glyph-name="oslash" unicode="&#xf8;" horiz-adv-x="1154" 
d="M457 210q54 -26 122 -26q118 0 183.5 85.5t65.5 246.5q0 50 -5.5 91.5t-16.5 76.5zM699 821q-51 27 -120 27q-121 0 -187 -86t-66 -246q0 -51 6 -93t17 -77zM962 896q64 -69 98.5 -164.5t34.5 -214.5q0 -123 -37 -221.5t-105 -167.5t-163 -106t-211 -37q-140 0 -249 53
l-27 -37q-15 -22 -34.5 -37t-41.5 -24t-44.5 -13t-44.5 -4h-100l157 213q-65 69 -100 165t-35 216q0 123 37.5 221t105.5 166.5t163.5 105.5t212.5 37q139 0 248 -53l50 69q13 20 25 33.5t26 22t31.5 12t41.5 3.5h136z" />
    <glyph glyph-name="ugrave" unicode="&#xf9;" horiz-adv-x="1133" 
d="M1019 1031v-1031h-170q-53 0 -68 48l-18 72q-31 -30 -64 -55t-70.5 -43t-81 -28t-94.5 -10q-84 0 -149.5 29t-109.5 81t-67 124t-23 158v655h276v-655q0 -86 39.5 -133.5t117.5 -47.5q58 0 109 25.5t97 69.5v741h276zM483 1467q43 0 64.5 -14t37.5 -42l139 -244h-156
q-31 0 -50.5 8.5t-39.5 29.5l-253 262h258z" />
    <glyph glyph-name="uacute" unicode="&#xfa;" horiz-adv-x="1133" 
d="M1019 1031v-1031h-170q-53 0 -68 48l-18 72q-31 -30 -64 -55t-70.5 -43t-81 -28t-94.5 -10q-84 0 -149.5 29t-109.5 81t-67 124t-23 158v655h276v-655q0 -86 39.5 -133.5t117.5 -47.5q58 0 109 25.5t97 69.5v741h276zM936 1467l-253 -262q-20 -21 -39.5 -29.5t-50.5 -8.5
h-166l140 244q15 28 36.5 42t65.5 14h267z" />
    <glyph glyph-name="ucircumflex" unicode="&#xfb;" horiz-adv-x="1133" 
d="M1019 1031v-1031h-170q-53 0 -68 48l-18 72q-31 -30 -64 -55t-70.5 -43t-81 -28t-94.5 -10q-84 0 -149.5 29t-109.5 81t-67 124t-23 158v655h276v-655q0 -86 39.5 -133.5t117.5 -47.5q58 0 109 25.5t97 69.5v741h276zM928 1168h-184q-16 0 -31 5.5t-31 20.5l-88 95
q-5 5 -11 11.5t-11 14.5q-12 -15 -23 -26l-90 -95q-28 -26 -62 -26h-191l232 283h258z" />
    <glyph glyph-name="udieresis" unicode="&#xfc;" horiz-adv-x="1133" 
d="M1019 1031v-1031h-170q-53 0 -68 48l-18 72q-31 -30 -64 -55t-70.5 -43t-81 -28t-94.5 -10q-84 0 -149.5 29t-109.5 81t-67 124t-23 158v655h276v-655q0 -86 39.5 -133.5t117.5 -47.5q58 0 109 25.5t97 69.5v741h276zM508 1294q0 -30 -12 -56t-32.5 -45.5t-48 -30.5
t-58.5 -11q-29 0 -55.5 11t-46.5 30.5t-32 45.5t-12 56t12 57t32 47.5t46.5 32t55.5 11.5q31 0 58.5 -11.5t48 -32t32.5 -47.5t12 -57zM923 1294q0 -30 -12 -56t-32 -45.5t-47.5 -30.5t-58.5 -11q-30 0 -57 11t-47 30.5t-31.5 45.5t-11.5 56t11.5 57t31.5 47.5t47 32
t57 11.5q31 0 58.5 -11.5t47.5 -32t32 -47.5t12 -57z" />
    <glyph glyph-name="yacute" unicode="&#xfd;" horiz-adv-x="1064" 
d="M1070 1031l-556 -1308q-13 -28 -31.5 -42t-58.5 -14h-205l195 416l-414 948h242q33 0 51 -15t26 -35l196 -493q11 -29 19.5 -58.5t16.5 -58.5q18 59 41 118l182 492q8 22 29 36t46 14h221zM926 1467l-253 -262q-20 -21 -39.5 -29.5t-50.5 -8.5h-166l140 244
q15 28 36.5 42t65.5 14h267z" />
    <glyph glyph-name="thorn" unicode="&#xfe;" horiz-adv-x="1142" 
d="M390 272q39 -45 84.5 -63t97.5 -18q50 0 91 19t70.5 59.5t45.5 103.5t16 150q0 86 -13.5 146t-38 97t-59.5 53.5t-78 16.5q-73 0 -122.5 -28.5t-93.5 -83.5v-452zM390 912q60 62 135 98.5t176 36.5q83 0 152.5 -35t119.5 -101.5t78 -164t28 -223.5q0 -116 -31.5 -214.5
t-89.5 -170.5t-139.5 -112.5t-181.5 -40.5q-86 0 -143.5 30.5t-103.5 80.5v-429h-276v1824h276v-579z" />
    <glyph glyph-name="ydieresis" unicode="&#xff;" horiz-adv-x="1064" 
d="M1070 1031l-556 -1308q-13 -28 -31.5 -42t-58.5 -14h-205l195 416l-414 948h242q33 0 51 -15t26 -35l196 -493q11 -29 19.5 -58.5t16.5 -58.5q18 59 41 118l182 492q8 22 29 36t46 14h221zM498 1294q0 -30 -12 -56t-32.5 -45.5t-48 -30.5t-58.5 -11q-29 0 -55.5 11
t-46.5 30.5t-32 45.5t-12 56t12 57t32 47.5t46.5 32t55.5 11.5q31 0 58.5 -11.5t48 -32t32.5 -47.5t12 -57zM913 1294q0 -30 -12 -56t-32 -45.5t-47.5 -30.5t-58.5 -11q-30 0 -57 11t-47 30.5t-31.5 45.5t-11.5 56t11.5 57t31.5 47.5t47 32t57 11.5q31 0 58.5 -11.5
t47.5 -32t32 -47.5t12 -57z" />
    <glyph glyph-name="Amacron" unicode="&#x100;" horiz-adv-x="1404" 
d="M918 551l-157 444q-14 35 -29.5 82t-29.5 102q-14 -56 -29.5 -103.5t-29.5 -82.5l-156 -442h431zM1422 0h-233q-39 0 -63.5 18.5t-36.5 47.5l-98 277h-578l-98 -277q-10 -25 -35 -45.5t-63 -20.5h-235l567 1451h307zM392 1719h618v-155h-618v155z" />
    <glyph glyph-name="amacron" unicode="&#x101;" horiz-adv-x="1024" 
d="M653 431q-101 -5 -168 -17.5t-106.5 -32.5t-56 -45.5t-16.5 -55.5q0 -60 33.5 -85t93.5 -25q69 0 119.5 24.5t100.5 76.5v160zM91 888q91 82 201 122.5t238 40.5q92 0 164.5 -30t123 -83.5t77.5 -127.5t27 -162v-648h-126q-39 0 -59.5 11t-33.5 46l-22 66
q-39 -34 -75.5 -60t-75.5 -43.5t-83.5 -26.5t-99.5 -9q-68 0 -124 18t-96.5 53.5t-62.5 88.5t-22 122q0 57 29 114t99.5 103.5t188 77t294.5 34.5v53q0 97 -41 142.5t-118 45.5q-57 0 -95 -13.5t-66.5 -29t-53.5 -29t-58 -13.5q-29 0 -48.5 14.5t-32.5 34.5zM201 1381h608
v-172h-608v172z" />
    <glyph glyph-name="Abreve" unicode="&#x102;" horiz-adv-x="1404" 
d="M918 551l-157 444q-14 35 -29.5 82t-29.5 102q-14 -56 -29.5 -103.5t-29.5 -82.5l-156 -442h431zM1422 0h-233q-39 0 -63.5 18.5t-36.5 47.5l-98 277h-578l-98 -277q-10 -25 -35 -45.5t-63 -20.5h-235l567 1451h307zM701 1546q-77 0 -140 16.5t-108 50.5t-70 86.5
t-25 123.5h211q0 -55 29 -85t103 -30t103 30t29 85h211q0 -64 -25 -115.5t-70 -87.5t-108.5 -55t-139.5 -19z" />
    <glyph glyph-name="abreve" unicode="&#x103;" horiz-adv-x="1024" 
d="M653 431q-101 -5 -168 -17.5t-106.5 -32.5t-56 -45.5t-16.5 -55.5q0 -60 33.5 -85t93.5 -25q69 0 119.5 24.5t100.5 76.5v160zM91 888q91 82 201 122.5t238 40.5q92 0 164.5 -30t123 -83.5t77.5 -127.5t27 -162v-648h-126q-39 0 -59.5 11t-33.5 46l-22 66
q-39 -34 -75.5 -60t-75.5 -43.5t-83.5 -26.5t-99.5 -9q-68 0 -124 18t-96.5 53.5t-62.5 88.5t-22 122q0 57 29 114t99.5 103.5t188 77t294.5 34.5v53q0 97 -41 142.5t-118 45.5q-57 0 -95 -13.5t-66.5 -29t-53.5 -29t-58 -13.5q-29 0 -48.5 14.5t-32.5 34.5zM505 1160
q-89 0 -149.5 23t-97 63t-52 93t-15.5 112h193q0 -29 5 -51.5t18.5 -38t37 -23.5t60.5 -8t60.5 8t37 23.5t18.5 38t5 51.5h193q0 -59 -15.5 -112t-52 -93t-97 -63t-149.5 -23z" />
    <glyph glyph-name="Aogonek" unicode="&#x104;" horiz-adv-x="1402" 
d="M916 551l-157 444q-14 35 -29.5 82t-29.5 102q-14 -56 -29.5 -103.5t-29.5 -82.5l-156 -442h431zM1457 -295q-34 -22 -84.5 -36.5t-107.5 -14.5q-103 0 -156.5 41.5t-53.5 106.5q0 54 35.5 105t106.5 93h-10q-39 0 -63.5 18.5t-36.5 47.5l-98 277h-578l-98 -277
q-10 -25 -35 -45.5t-63 -20.5h-235l567 1451h307l566 -1451h-60q-20 -11 -38 -24.5t-31.5 -30t-22 -35t-8.5 -39.5q0 -28 16.5 -44t46.5 -16q17 0 28 1.5t17.5 4t11.5 4t10 1.5q19 0 26 -17z" />
    <glyph glyph-name="aogonek" unicode="&#x105;" horiz-adv-x="1024" 
d="M653 431q-101 -5 -168 -17.5t-106.5 -32.5t-56 -45.5t-16.5 -55.5q0 -60 33.5 -85t93.5 -25q69 0 119.5 24.5t100.5 76.5v160zM1019 -295q-34 -22 -84.5 -36.5t-107.5 -14.5q-103 0 -156.5 41.5t-53.5 106.5q0 54 36.5 106t109.5 94q-23 4 -36 16.5t-24 38.5l-22 66
q-39 -34 -75.5 -60t-75.5 -43.5t-83.5 -26.5t-99.5 -9q-68 0 -124 18t-96.5 53.5t-62.5 88.5t-22 122q0 57 29 114t99.5 103.5t188 77t294.5 34.5v53q0 97 -41 142.5t-118 45.5q-57 0 -95 -13.5t-66.5 -29t-53.5 -29t-58 -13.5q-29 0 -48.5 14.5t-32.5 34.5l-49 88
q91 82 201 122.5t238 40.5q92 0 164.5 -30t123 -83.5t77.5 -127.5t27 -162v-648q-20 -11 -38 -24.5t-31.5 -30t-22 -35t-8.5 -39.5q0 -28 16.5 -44t46.5 -16q17 0 28 1.5t17.5 4t11.5 4t10 1.5q19 0 26 -17z" />
    <glyph glyph-name="Cacute" unicode="&#x106;" horiz-adv-x="1317" 
d="M1139 357q25 0 42 -18l119 -127q-88 -112 -218.5 -170t-310.5 -58q-163 0 -293 55.5t-221 154.5t-140 235t-49 297q0 108 23.5 205.5t68.5 179.5t108.5 148t143.5 112.5t174.5 71t201.5 24.5q80 0 151.5 -14t133.5 -39t114.5 -60.5t94.5 -77.5l-101 -138q-9 -13 -23 -23
t-38 -10t-48.5 17t-60 38t-89 38t-135.5 17q-91 0 -167 -33t-130.5 -95.5t-84.5 -153.5t-30 -207q0 -117 32.5 -208.5t89 -154.5t132 -95.5t161.5 -32.5q51 0 92.5 5t77 17t67 31t63.5 48q11 9 23 15t26 6zM1247 1864l-323 -286q-11 -9 -21 -14.5t-20.5 -8.5t-23 -4
t-27.5 -1h-200l200 271q11 15 21.5 23.5t23 13t28.5 5.5t37 1h305z" />
    <glyph glyph-name="cacute" unicode="&#x107;" horiz-adv-x="968" 
d="M862 801q-12 -16 -24 -24.5t-34 -8.5q-20 0 -38.5 11.5t-42.5 25t-57 25t-82 11.5q-62 0 -107.5 -22.5t-75.5 -64.5t-44.5 -102t-14.5 -135q0 -158 63.5 -242t173.5 -84q38 0 65.5 6.5t48 16.5t35.5 22t28.5 22t27 16.5t30.5 6.5q32 0 50 -24l79 -100q-44 -51 -94 -84.5
t-103.5 -53t-108.5 -27t-109 -7.5q-95 0 -180 35.5t-149 103.5t-101.5 167t-37.5 226q0 113 33 210t97 168t158.5 111.5t218.5 40.5q118 0 207 -38t160 -110zM929 1467l-253 -262q-20 -21 -39.5 -29.5t-50.5 -8.5h-166l140 244q15 28 36.5 42t65.5 14h267z" />
    <glyph glyph-name="Ccircumflex" unicode="&#x108;" horiz-adv-x="1317" 
d="M1139 357q25 0 42 -18l119 -127q-88 -112 -218.5 -170t-310.5 -58q-163 0 -293 55.5t-221 154.5t-140 235t-49 297q0 108 23.5 205.5t68.5 179.5t108.5 148t143.5 112.5t174.5 71t201.5 24.5q80 0 151.5 -14t133.5 -39t114.5 -60.5t94.5 -77.5l-101 -138q-9 -13 -23 -23
t-38 -10t-48.5 17t-60 38t-89 38t-135.5 17q-91 0 -167 -33t-130.5 -95.5t-84.5 -153.5t-30 -207q0 -117 32.5 -208.5t89 -154.5t132 -95.5t161.5 -32.5q51 0 92.5 5t77 17t67 31t63.5 48q11 9 23 15t26 6zM1182 1550h-200q-16 0 -39.5 6t-48.5 35l-68 94q-5 6 -8.5 12
t-7.5 12q-4 -6 -7.5 -12t-8.5 -12l-68 -94q-25 -29 -48.5 -35t-39.5 -6h-191l242 276h250z" />
    <glyph glyph-name="ccircumflex" unicode="&#x109;" horiz-adv-x="968" 
d="M862 801q-12 -16 -24 -24.5t-34 -8.5q-20 0 -38.5 11.5t-42.5 25t-57 25t-82 11.5q-62 0 -107.5 -22.5t-75.5 -64.5t-44.5 -102t-14.5 -135q0 -158 63.5 -242t173.5 -84q38 0 65.5 6.5t48 16.5t35.5 22t28.5 22t27 16.5t30.5 6.5q32 0 50 -24l79 -100q-44 -51 -94 -84.5
t-103.5 -53t-108.5 -27t-109 -7.5q-95 0 -180 35.5t-149 103.5t-101.5 167t-37.5 226q0 113 33 210t97 168t158.5 111.5t218.5 40.5q118 0 207 -38t160 -110zM921 1168h-184q-16 0 -31 5.5t-31 20.5l-88 95q-5 5 -11 11.5t-11 14.5q-12 -15 -23 -26l-90 -95q-28 -26 -62 -26
h-191l232 283h258z" />
    <glyph glyph-name="Cdotaccent" unicode="&#x10a;" horiz-adv-x="1317" 
d="M1139 357q25 0 42 -18l119 -127q-88 -112 -218.5 -170t-310.5 -58q-163 0 -293 55.5t-221 154.5t-140 235t-49 297q0 108 23.5 205.5t68.5 179.5t108.5 148t143.5 112.5t174.5 71t201.5 24.5q80 0 151.5 -14t133.5 -39t114.5 -60.5t94.5 -77.5l-101 -138q-9 -13 -23 -23
t-38 -10t-48.5 17t-60 38t-89 38t-135.5 17q-91 0 -167 -33t-130.5 -95.5t-84.5 -153.5t-30 -207q0 -117 32.5 -208.5t89 -154.5t132 -95.5t161.5 -32.5q51 0 92.5 5t77 17t67 31t63.5 48q11 9 23 15t26 6zM972 1697q0 -32 -13 -60.5t-36 -50.5t-53.5 -34.5t-64.5 -12.5
q-32 0 -60.5 12.5t-50.5 34.5t-35 50.5t-13 60.5q0 33 13 62.5t35 51.5t50.5 35t60.5 13q34 0 64.5 -13t53.5 -35t36 -51.5t13 -62.5z" />
    <glyph glyph-name="cdotaccent" unicode="&#x10b;" horiz-adv-x="968" 
d="M862 801q-12 -16 -24 -24.5t-34 -8.5q-20 0 -38.5 11.5t-42.5 25t-57 25t-82 11.5q-62 0 -107.5 -22.5t-75.5 -64.5t-44.5 -102t-14.5 -135q0 -158 63.5 -242t173.5 -84q38 0 65.5 6.5t48 16.5t35.5 22t28.5 22t27 16.5t30.5 6.5q32 0 50 -24l79 -100q-44 -51 -94 -84.5
t-103.5 -53t-108.5 -27t-109 -7.5q-95 0 -180 35.5t-149 103.5t-101.5 167t-37.5 226q0 113 33 210t97 168t158.5 111.5t218.5 40.5q118 0 207 -38t160 -110zM732 1326q0 -34 -14 -64.5t-37.5 -53t-55 -36t-67.5 -13.5q-34 0 -64.5 13.5t-53.5 36t-36.5 53t-13.5 64.5
q0 35 13.5 65.5t36.5 53.5t53.5 36.5t64.5 13.5q36 0 67.5 -13.5t55 -36.5t37.5 -53.5t14 -65.5z" />
    <glyph glyph-name="Ccaron" unicode="&#x10c;" horiz-adv-x="1317" 
d="M1139 357q25 0 42 -18l119 -127q-88 -112 -218.5 -170t-310.5 -58q-163 0 -293 55.5t-221 154.5t-140 235t-49 297q0 108 23.5 205.5t68.5 179.5t108.5 148t143.5 112.5t174.5 71t201.5 24.5q80 0 151.5 -14t133.5 -39t114.5 -60.5t94.5 -77.5l-101 -138q-9 -13 -23 -23
t-38 -10t-48.5 17t-60 38t-89 38t-135.5 17q-91 0 -167 -33t-130.5 -95.5t-84.5 -153.5t-30 -207q0 -117 32.5 -208.5t89 -154.5t132 -95.5t161.5 -32.5q51 0 92.5 5t77 17t67 31t63.5 48q11 9 23 15t26 6zM1182 1826l-243 -276h-258l-243 276h200q8 0 18 -0.5t21 -3.5
t21.5 -9.5t19.5 -18.5l76 -104q5 -6 8.5 -12t7.5 -12q4 6 7.5 12t8.5 12l75 103q9 12 19.5 19t21.5 10t21.5 3.5t18.5 0.5h200z" />
    <glyph glyph-name="ccaron" unicode="&#x10d;" horiz-adv-x="968" 
d="M862 801q-12 -16 -24 -24.5t-34 -8.5q-20 0 -38.5 11.5t-42.5 25t-57 25t-82 11.5q-62 0 -107.5 -22.5t-75.5 -64.5t-44.5 -102t-14.5 -135q0 -158 63.5 -242t173.5 -84q38 0 65.5 6.5t48 16.5t35.5 22t28.5 22t27 16.5t30.5 6.5q32 0 50 -24l79 -100q-44 -51 -94 -84.5
t-103.5 -53t-108.5 -27t-109 -7.5q-95 0 -180 35.5t-149 103.5t-101.5 167t-37.5 226q0 113 33 210t97 168t158.5 111.5t218.5 40.5q118 0 207 -38t160 -110zM921 1451l-232 -283h-258l-232 283h191q17 0 31.5 -5.5t22.5 -12.5l96 -102q12 -12 24 -27q6 8 11.5 14.5
t11.5 12.5l96 102q8 6 23 12t31 6h184z" />
    <glyph glyph-name="Dcaron" unicode="&#x10e;" horiz-adv-x="1522" 
d="M1453 726q0 -159 -53.5 -292.5t-151 -229.5t-234.5 -150t-304 -54h-558v1451h558q167 0 304 -54t234.5 -150.5t151 -229.5t53.5 -291zM1145 726q0 114 -30 205t-86 154t-136.5 97t-182.5 34h-256v-981h256q102 0 182.5 33.5t136.5 97t86 154.5t30 206zM1050 1826
l-243 -276h-258l-243 276h200q8 0 18 -0.5t21 -3.5t21.5 -9.5t19.5 -18.5l76 -104q5 -6 8.5 -12t7.5 -12q4 6 7.5 12t8.5 12l75 103q9 12 19.5 19t21.5 10t21.5 3.5t18.5 0.5h200z" />
    <glyph glyph-name="dcaron" unicode="&#x10f;" horiz-adv-x="1141" 
d="M751 763q-39 45 -84.5 63t-96.5 18q-50 0 -91 -19t-70.5 -59.5t-45.5 -103.5t-16 -150q0 -86 13 -146t37.5 -97t59.5 -53.5t78 -16.5q73 0 122.5 29t93.5 82v453zM1027 1491v-1491h-170q-53 0 -68 48l-23 90q-31 -34 -65.5 -62t-74.5 -48.5t-86 -31.5t-100 -11
q-83 0 -152 35t-119.5 102.5t-78.5 165.5t-28 224q0 115 31.5 214t89.5 171t140 113t182 41q84 0 141.5 -25t104.5 -68v533h276zM1343 1493q30 0 37 -13.5t7 -25.5q0 -9 -3.5 -24t-14.5 -44.5t-30.5 -77t-52.5 -120.5q-15 -30 -37.5 -39t-57.5 -9h-98l64 353h186z" />
    <glyph glyph-name="Dcroat" unicode="&#x110;" horiz-adv-x="1541" 
d="M730 235q102 0 182.5 33.5t136.5 97t86 154.5t30 206q0 114 -30 205t-86 154t-136.5 97t-182.5 34h-256v-403h256v-167h-256v-411h256zM730 1451q167 0 304 -54t234.5 -150.5t151 -229.5t53.5 -291q0 -159 -53.5 -292.5t-151 -229.5t-234.5 -150t-304 -54h-558v646h-174
v167h174v638h558z" />
    <glyph glyph-name="dcroat" unicode="&#x111;" horiz-adv-x="1142" 
d="M753 729q-39 45 -84.5 63t-97.5 18q-50 0 -91 -16.5t-70 -53.5t-45 -97.5t-16 -147.5q0 -86 13 -143t37.5 -91t59.5 -48t78 -14q73 0 122.5 29t93.5 83v418zM1171 1127h-142v-1127h-170q-53 0 -68 48l-23 91q-31 -35 -65.5 -63t-74.5 -48.5t-86 -31.5t-100 -11
q-83 0 -152.5 32.5t-119.5 97t-78 159.5t-28 221q0 115 31.5 211t89.5 165t139.5 107t181.5 38q84 0 142 -25t105 -68v204h-223v167h223v197h276v-197h142v-167z" />
    <glyph glyph-name="Emacron" unicode="&#x112;" horiz-adv-x="1148" 
d="M454 1216v-373h484v-227h-484v-381h622v-235h-924v1451h924v-235h-622zM321 1719h618v-155h-618v155z" />
    <glyph glyph-name="emacron" unicode="&#x113;" horiz-adv-x="1072" 
d="M768 637q0 43 -11.5 82t-36.5 69t-63 47.5t-91 17.5q-99 0 -155 -56t-73 -160h430zM334 473q13 -145 82.5 -212t181.5 -67q57 0 98.5 13.5t73 30t57 30t50.5 13.5q32 0 50 -24l80 -100q-44 -51 -97 -84.5t-110 -53t-115 -27t-112 -7.5q-108 0 -201.5 35.5t-163 105
t-109.5 172.5t-40 239q0 105 34.5 198t99.5 162t158 109.5t210 40.5q99 0 182.5 -31.5t144 -91.5t94 -147.5t33.5 -199.5q0 -31 -3 -51t-10 -32t-19 -16.5t-31 -4.5h-618zM263 1381h608v-172h-608v172z" />
    <glyph glyph-name="Ebreve" unicode="&#x114;" horiz-adv-x="1148" 
d="M454 1216v-373h484v-227h-484v-381h622v-235h-924v1451h924v-235h-622zM630 1546q-77 0 -140 16.5t-108 50.5t-70 86.5t-25 123.5h211q0 -55 29 -85t103 -30t103 30t29 85h211q0 -64 -25 -115.5t-70 -87.5t-108.5 -55t-139.5 -19z" />
    <glyph glyph-name="ebreve" unicode="&#x115;" horiz-adv-x="1072" 
d="M768 637q0 43 -11.5 82t-36.5 69t-63 47.5t-91 17.5q-99 0 -155 -56t-73 -160h430zM334 473q13 -145 82.5 -212t181.5 -67q57 0 98.5 13.5t73 30t57 30t50.5 13.5q32 0 50 -24l80 -100q-44 -51 -97 -84.5t-110 -53t-115 -27t-112 -7.5q-108 0 -201.5 35.5t-163 105
t-109.5 172.5t-40 239q0 105 34.5 198t99.5 162t158 109.5t210 40.5q99 0 182.5 -31.5t144 -91.5t94 -147.5t33.5 -199.5q0 -31 -3 -51t-10 -32t-19 -16.5t-31 -4.5h-618zM567 1160q-89 0 -149.5 23t-97 63t-52 93t-15.5 112h193q0 -29 5 -51.5t18.5 -38t37 -23.5t60.5 -8
t60.5 8t37 23.5t18.5 38t5 51.5h193q0 -59 -15.5 -112t-52 -93t-97 -63t-149.5 -23z" />
    <glyph glyph-name="Edotaccent" unicode="&#x116;" horiz-adv-x="1148" 
d="M454 1216v-373h484v-227h-484v-381h622v-235h-924v1451h924v-235h-622zM792 1697q0 -32 -13 -60.5t-36 -50.5t-53.5 -34.5t-64.5 -12.5q-32 0 -60.5 12.5t-50.5 34.5t-35 50.5t-13 60.5q0 33 13 62.5t35 51.5t50.5 35t60.5 13q34 0 64.5 -13t53.5 -35t36 -51.5t13 -62.5z
" />
    <glyph glyph-name="edotaccent" unicode="&#x117;" horiz-adv-x="1072" 
d="M768 637q0 43 -11.5 82t-36.5 69t-63 47.5t-91 17.5q-99 0 -155 -56t-73 -160h430zM334 473q13 -145 82.5 -212t181.5 -67q57 0 98.5 13.5t73 30t57 30t50.5 13.5q32 0 50 -24l80 -100q-44 -51 -97 -84.5t-110 -53t-115 -27t-112 -7.5q-108 0 -201.5 35.5t-163 105
t-109.5 172.5t-40 239q0 105 34.5 198t99.5 162t158 109.5t210 40.5q99 0 182.5 -31.5t144 -91.5t94 -147.5t33.5 -199.5q0 -31 -3 -51t-10 -32t-19 -16.5t-31 -4.5h-618zM739 1326q0 -34 -14 -64.5t-37.5 -53t-55 -36t-67.5 -13.5q-34 0 -64.5 13.5t-53.5 36t-36.5 53
t-13.5 64.5q0 35 13.5 65.5t36.5 53.5t53.5 36.5t64.5 13.5q36 0 67.5 -13.5t55 -36.5t37.5 -53.5t14 -65.5z" />
    <glyph glyph-name="Eogonek" unicode="&#x118;" horiz-adv-x="1148" 
d="M1081 -295q-34 -22 -84.5 -36.5t-107.5 -14.5q-103 0 -156.5 41.5t-53.5 106.5q0 54 35.5 105t106.5 93h-669v1451h924v-235h-622v-373h484v-227h-484v-381h622v-235h-92q-20 -11 -38 -24.5t-31.5 -30t-22 -35t-8.5 -39.5q0 -28 16.5 -44t46.5 -16q17 0 28 1.5t17.5 4
t11.5 4t10 1.5q19 0 26 -17z" />
    <glyph glyph-name="eogonek" unicode="&#x119;" horiz-adv-x="1072" 
d="M768 637q0 43 -11.5 82t-36.5 69t-63 47.5t-91 17.5q-99 0 -155 -56t-73 -160h430zM334 473q13 -145 82.5 -212t181.5 -67q57 0 98.5 13.5t73 30t57 30t50.5 13.5q32 0 50 -24l80 -100q-64 -74 -144.5 -111t-163.5 -51q-36 -21 -63.5 -53t-27.5 -71q0 -28 16.5 -44
t46.5 -16q17 0 28 1.5t17.5 4t11.5 4t10 1.5q19 0 26 -17l41 -100q-34 -22 -84.5 -36.5t-107.5 -14.5q-103 0 -156.5 41.5t-53.5 106.5q0 49 30.5 96.5t90.5 88.5q-99 7 -184 46t-147.5 108.5t-98 168.5t-35.5 227q0 105 34.5 198t99.5 162t158 109.5t210 40.5
q99 0 182.5 -31.5t144 -91.5t94 -147.5t33.5 -199.5q0 -31 -3 -51t-10 -32t-19 -16.5t-31 -4.5h-618z" />
    <glyph glyph-name="Ecaron" unicode="&#x11a;" horiz-adv-x="1148" 
d="M454 1216v-373h484v-227h-484v-381h622v-235h-924v1451h924v-235h-622zM1002 1826l-243 -276h-258l-243 276h200q8 0 18 -0.5t21 -3.5t21.5 -9.5t19.5 -18.5l76 -104q5 -6 8.5 -12t7.5 -12q4 6 7.5 12t8.5 12l75 103q9 12 19.5 19t21.5 10t21.5 3.5t18.5 0.5h200z" />
    <glyph glyph-name="ecaron" unicode="&#x11b;" horiz-adv-x="1072" 
d="M768 637q0 43 -11.5 82t-36.5 69t-63 47.5t-91 17.5q-99 0 -155 -56t-73 -160h430zM334 473q13 -145 82.5 -212t181.5 -67q57 0 98.5 13.5t73 30t57 30t50.5 13.5q32 0 50 -24l80 -100q-44 -51 -97 -84.5t-110 -53t-115 -27t-112 -7.5q-108 0 -201.5 35.5t-163 105
t-109.5 172.5t-40 239q0 105 34.5 198t99.5 162t158 109.5t210 40.5q99 0 182.5 -31.5t144 -91.5t94 -147.5t33.5 -199.5q0 -31 -3 -51t-10 -32t-19 -16.5t-31 -4.5h-618zM928 1451l-232 -283h-258l-232 283h191q17 0 31.5 -5.5t22.5 -12.5l96 -102q12 -12 24 -27
q6 8 11.5 14.5t11.5 12.5l96 102q8 6 23 12t31 6h184z" />
    <glyph glyph-name="Gcircumflex" unicode="&#x11c;" horiz-adv-x="1449" 
d="M858 739h498v-599q-111 -81 -236.5 -118.5t-265.5 -37.5q-179 0 -324 55.5t-248 154.5t-159 235t-56 297q0 163 53.5 299t152.5 234t239.5 153t314.5 55q90 0 168 -14.5t144 -40t121 -60.5t100 -77l-87 -134q-20 -32 -52 -39t-70 16q-36 22 -70.5 39.5t-73.5 30.5t-85 20
t-106 7q-101 0 -183 -35t-139.5 -99t-88.5 -154t-31 -201q0 -120 34 -214.5t96 -159.5t148.5 -99t192.5 -34q72 0 128.5 14.5t110.5 39.5v244h-164q-29 0 -45.5 15.5t-16.5 39.5v167zM1195 1550h-200q-16 0 -39.5 6t-48.5 35l-68 94q-5 6 -8.5 12t-7.5 12q-4 -6 -7.5 -12
t-8.5 -12l-68 -94q-25 -29 -48.5 -35t-39.5 -6h-191l242 276h250z" />
    <glyph glyph-name="gcircumflex" unicode="&#x11d;" horiz-adv-x="1063" 
d="M498 554q85 0 125.5 43t40.5 111q0 71 -40.5 111.5t-125.5 40.5t-125 -40.5t-40 -111.5q0 -67 40.5 -110.5t124.5 -43.5zM759 -42q0 27 -17 44t-45.5 27t-67.5 14.5t-83 7t-91 4.5t-92 7q-35 -21 -57.5 -49.5t-22.5 -64.5q0 -25 11.5 -46t38.5 -36t71 -23.5t110 -8.5
q68 0 115 9t76 25.5t41.5 39.5t12.5 50zM1033 997v-101q0 -24 -13.5 -38t-44.5 -21l-84 -17q17 -49 17 -105q0 -77 -31.5 -138.5t-86.5 -105t-130 -67t-162 -23.5q-55 0 -103 9q-42 -26 -42 -57q0 -29 28.5 -42t75 -18.5t106 -7t121 -6.5t121 -17.5t106 -41t75 -75.5
t28.5 -121q0 -69 -34 -134t-98.5 -116t-158.5 -82t-214 -31q-119 0 -206.5 22.5t-145 60t-85.5 86.5t-28 102q0 69 42 117t116 77q-39 22 -62.5 57.5t-23.5 92.5q0 46 33.5 97t103.5 85q-79 42 -125 112.5t-46 164.5q0 77 31.5 139t87.5 105.5t132 66.5t165 23
q132 0 233 -52h302zM883 1168h-184q-16 0 -31 5.5t-31 20.5l-88 95q-5 5 -11 11.5t-11 14.5q-12 -15 -23 -26l-90 -95q-28 -26 -62 -26h-191l232 283h258z" />
    <glyph glyph-name="Gbreve" unicode="&#x11e;" horiz-adv-x="1449" 
d="M858 739h498v-599q-111 -81 -236.5 -118.5t-265.5 -37.5q-179 0 -324 55.5t-248 154.5t-159 235t-56 297q0 163 53.5 299t152.5 234t239.5 153t314.5 55q90 0 168 -14.5t144 -40t121 -60.5t100 -77l-87 -134q-20 -32 -52 -39t-70 16q-36 22 -70.5 39.5t-73.5 30.5t-85 20
t-106 7q-101 0 -183 -35t-139.5 -99t-88.5 -154t-31 -201q0 -120 34 -214.5t96 -159.5t148.5 -99t192.5 -34q72 0 128.5 14.5t110.5 39.5v244h-164q-29 0 -45.5 15.5t-16.5 39.5v167zM823 1546q-77 0 -140 16.5t-108 50.5t-70 86.5t-25 123.5h211q0 -55 29 -85t103 -30
t103 30t29 85h211q0 -64 -25 -115.5t-70 -87.5t-108.5 -55t-139.5 -19z" />
    <glyph glyph-name="gbreve" unicode="&#x11f;" horiz-adv-x="1063" 
d="M498 554q85 0 125.5 43t40.5 111q0 71 -40.5 111.5t-125.5 40.5t-125 -40.5t-40 -111.5q0 -67 40.5 -110.5t124.5 -43.5zM759 -42q0 27 -17 44t-45.5 27t-67.5 14.5t-83 7t-91 4.5t-92 7q-35 -21 -57.5 -49.5t-22.5 -64.5q0 -25 11.5 -46t38.5 -36t71 -23.5t110 -8.5
q68 0 115 9t76 25.5t41.5 39.5t12.5 50zM1033 997v-101q0 -24 -13.5 -38t-44.5 -21l-84 -17q17 -49 17 -105q0 -77 -31.5 -138.5t-86.5 -105t-130 -67t-162 -23.5q-55 0 -103 9q-42 -26 -42 -57q0 -29 28.5 -42t75 -18.5t106 -7t121 -6.5t121 -17.5t106 -41t75 -75.5
t28.5 -121q0 -69 -34 -134t-98.5 -116t-158.5 -82t-214 -31q-119 0 -206.5 22.5t-145 60t-85.5 86.5t-28 102q0 69 42 117t116 77q-39 22 -62.5 57.5t-23.5 92.5q0 46 33.5 97t103.5 85q-79 42 -125 112.5t-46 164.5q0 77 31.5 139t87.5 105.5t132 66.5t165 23
q132 0 233 -52h302zM522 1160q-89 0 -149.5 23t-97 63t-52 93t-15.5 112h193q0 -29 5 -51.5t18.5 -38t37 -23.5t60.5 -8t60.5 8t37 23.5t18.5 38t5 51.5h193q0 -59 -15.5 -112t-52 -93t-97 -63t-149.5 -23z" />
    <glyph glyph-name="Gdotaccent" unicode="&#x120;" horiz-adv-x="1449" 
d="M858 739h498v-599q-111 -81 -236.5 -118.5t-265.5 -37.5q-179 0 -324 55.5t-248 154.5t-159 235t-56 297q0 163 53.5 299t152.5 234t239.5 153t314.5 55q90 0 168 -14.5t144 -40t121 -60.5t100 -77l-87 -134q-20 -32 -52 -39t-70 16q-36 22 -70.5 39.5t-73.5 30.5t-85 20
t-106 7q-101 0 -183 -35t-139.5 -99t-88.5 -154t-31 -201q0 -120 34 -214.5t96 -159.5t148.5 -99t192.5 -34q72 0 128.5 14.5t110.5 39.5v244h-164q-29 0 -45.5 15.5t-16.5 39.5v167zM986 1697q0 -32 -13 -60.5t-36 -50.5t-53.5 -34.5t-64.5 -12.5q-32 0 -60.5 12.5
t-50.5 34.5t-35 50.5t-13 60.5q0 33 13 62.5t35 51.5t50.5 35t60.5 13q34 0 64.5 -13t53.5 -35t36 -51.5t13 -62.5z" />
    <glyph glyph-name="gdotaccent" unicode="&#x121;" horiz-adv-x="1063" 
d="M498 554q85 0 125.5 43t40.5 111q0 71 -40.5 111.5t-125.5 40.5t-125 -40.5t-40 -111.5q0 -67 40.5 -110.5t124.5 -43.5zM759 -42q0 27 -17 44t-45.5 27t-67.5 14.5t-83 7t-91 4.5t-92 7q-35 -21 -57.5 -49.5t-22.5 -64.5q0 -25 11.5 -46t38.5 -36t71 -23.5t110 -8.5
q68 0 115 9t76 25.5t41.5 39.5t12.5 50zM1033 997v-101q0 -24 -13.5 -38t-44.5 -21l-84 -17q17 -49 17 -105q0 -77 -31.5 -138.5t-86.5 -105t-130 -67t-162 -23.5q-55 0 -103 9q-42 -26 -42 -57q0 -29 28.5 -42t75 -18.5t106 -7t121 -6.5t121 -17.5t106 -41t75 -75.5
t28.5 -121q0 -69 -34 -134t-98.5 -116t-158.5 -82t-214 -31q-119 0 -206.5 22.5t-145 60t-85.5 86.5t-28 102q0 69 42 117t116 77q-39 22 -62.5 57.5t-23.5 92.5q0 46 33.5 97t103.5 85q-79 42 -125 112.5t-46 164.5q0 77 31.5 139t87.5 105.5t132 66.5t165 23
q132 0 233 -52h302zM694 1326q0 -34 -14 -64.5t-37.5 -53t-55 -36t-67.5 -13.5q-34 0 -64.5 13.5t-53.5 36t-36.5 53t-13.5 64.5q0 35 13.5 65.5t36.5 53.5t53.5 36.5t64.5 13.5q36 0 67.5 -13.5t55 -36.5t37.5 -53.5t14 -65.5z" />
    <glyph glyph-name="uni0122" unicode="&#x122;" horiz-adv-x="1449" 
d="M858 739h498v-599q-111 -81 -236.5 -118.5t-265.5 -37.5q-179 0 -324 55.5t-248 154.5t-159 235t-56 297q0 163 53.5 299t152.5 234t239.5 153t314.5 55q90 0 168 -14.5t144 -40t121 -60.5t100 -77l-87 -134q-20 -32 -52 -39t-70 16q-36 22 -70.5 39.5t-73.5 30.5t-85 20
t-106 7q-101 0 -183 -35t-139.5 -99t-88.5 -154t-31 -201q0 -120 34 -214.5t96 -159.5t148.5 -99t192.5 -34q72 0 128.5 14.5t110.5 39.5v244h-164q-29 0 -45.5 15.5t-16.5 39.5v167zM819 -88q30 0 37 -13.5t7 -25.5q0 -9 -2 -24.5t-9.5 -40.5t-21.5 -61.5t-38 -86.5
q-15 -31 -37.5 -39.5t-57.5 -8.5h-98l51 300h169z" />
    <glyph glyph-name="uni0123" unicode="&#x123;" horiz-adv-x="1063" 
d="M498 554q85 0 125.5 43t40.5 111q0 71 -40.5 111.5t-125.5 40.5t-125 -40.5t-40 -111.5q0 -67 40.5 -110.5t124.5 -43.5zM759 -42q0 27 -17 44t-45.5 27t-67.5 14.5t-83 7t-91 4.5t-92 7q-35 -21 -57.5 -49.5t-22.5 -64.5q0 -25 11.5 -46t38.5 -36t71 -23.5t110 -8.5
q68 0 115 9t76 25.5t41.5 39.5t12.5 50zM1033 997v-101q0 -24 -13.5 -38t-44.5 -21l-84 -17q17 -49 17 -105q0 -77 -31.5 -138.5t-86.5 -105t-130 -67t-162 -23.5q-55 0 -103 9q-42 -26 -42 -57q0 -29 28.5 -42t75 -18.5t106 -7t121 -6.5t121 -17.5t106 -41t75 -75.5
t28.5 -121q0 -69 -34 -134t-98.5 -116t-158.5 -82t-214 -31q-119 0 -206.5 22.5t-145 60t-85.5 86.5t-28 102q0 69 42 117t116 77q-39 22 -62.5 57.5t-23.5 92.5q0 46 33.5 97t103.5 85q-79 42 -125 112.5t-46 164.5q0 77 31.5 139t87.5 105.5t132 66.5t165 23
q132 0 233 -52h302zM639 1170h-236l115 284h173z" />
    <glyph glyph-name="Hcircumflex" unicode="&#x124;" horiz-adv-x="1547" 
d="M1395 1451v-1451h-302v625h-639v-625h-302v1451h302v-616h639v616h302zM1147 1550h-200q-16 0 -39.5 6t-48.5 35l-68 94q-5 6 -8.5 12t-7.5 12q-4 -6 -7.5 -12t-8.5 -12l-68 -94q-25 -29 -48.5 -35t-39.5 -6h-191l242 276h250z" />
    <glyph glyph-name="hcircumflex" unicode="&#x125;" horiz-adv-x="1134" 
d="M390 930q29 26 60.5 47.5t67 37t76 24t87.5 8.5q84 0 149 -29t109.5 -81t67 -124t22.5 -158v-655h-275v655q0 86 -40 133.5t-118 47.5q-58 0 -109 -25t-97 -70v-741h-276v1491h276v-561zM618 1550h-200q-16 0 -39.5 6t-48.5 35l-68 94q-5 6 -8.5 12t-7.5 12
q-4 -6 -7.5 -12t-8.5 -12l-68 -94q-25 -29 -48.5 -35t-39.5 -6h-191l242 276h250z" />
    <glyph glyph-name="Hbar" unicode="&#x126;" horiz-adv-x="1569" 
d="M1104 1035h-639v-200h639v200zM1552 1035h-146v-1035h-302v625h-639v-625h-302v1035h-146v172h146v244h302v-244h639v244h302v-244h146v-172z" />
    <glyph glyph-name="hbar" unicode="&#x127;" horiz-adv-x="1134" 
d="M389 896q29 26 60.5 47.5t67 37t76 24t87.5 8.5q84 0 149 -29t109.5 -81t67 -124t22.5 -158v-621h-275v621q0 86 -40 133.5t-118 47.5q-58 0 -109 -25.5t-97 -69.5v-707h-275v1132h-139v167h139v192h275v-192h276v-167h-276v-236z" />
    <glyph glyph-name="Itilde" unicode="&#x128;" horiz-adv-x="606" 
d="M454 0h-302v1451h302v-1451zM431 1713q22 0 38 8.5t26 22t15 29.5t5 31h167q0 -52 -14 -100t-41.5 -85t-68 -59.5t-93.5 -22.5t-91.5 15.5t-69 34t-56 34t-52.5 15.5q-22 0 -37.5 -9t-25 -23t-14.5 -30t-5 -31h-169q0 52 14.5 100.5t42 86t68 60t93.5 22.5t92 -15.5
t69 -34t55.5 -34t51.5 -15.5z" />
    <glyph glyph-name="itilde" unicode="&#x129;" horiz-adv-x="520" 
d="M398 1031v-1031h-276v1031h276zM374 1372q27 0 43 14.5t16 56.5h168q0 -59 -16.5 -107t-45.5 -81.5t-69 -52t-86 -18.5q-36 0 -67.5 12.5t-59 27t-50.5 27t-41 12.5q-27 0 -42.5 -15.5t-15.5 -57.5h-170q0 59 16.5 107t46 82t69 52.5t85.5 18.5q37 0 69 -12t59 -27
t49.5 -27t41.5 -12z" />
    <glyph glyph-name="Imacron" unicode="&#x12a;" horiz-adv-x="606" 
d="M454 0h-302v1451h302v-1451zM-2 1719h618v-155h-618v155z" />
    <glyph glyph-name="imacron" unicode="&#x12b;" horiz-adv-x="520" 
d="M398 1031v-1031h-276v1031h276zM-36 1381h608v-172h-608v172z" />
    <glyph glyph-name="Ibreve" unicode="&#x12c;" horiz-adv-x="606" 
d="M454 0h-302v1451h302v-1451zM307 1546q-77 0 -140 16.5t-108 50.5t-70 86.5t-25 123.5h211q0 -55 29 -85t103 -30t103 30t29 85h211q0 -64 -25 -115.5t-70 -87.5t-108.5 -55t-139.5 -19z" />
    <glyph glyph-name="ibreve" unicode="&#x12d;" horiz-adv-x="520" 
d="M398 1031v-1031h-276v1031h276zM268 1160q-89 0 -149.5 23t-97 63t-52 93t-15.5 112h193q0 -29 5 -51.5t18.5 -38t37 -23.5t60.5 -8t60.5 8t37 23.5t18.5 38t5 51.5h193q0 -59 -15.5 -112t-52 -93t-97 -63t-149.5 -23z" />
    <glyph glyph-name="Iogonek" unicode="&#x12e;" horiz-adv-x="606" 
d="M506 -295q-34 -22 -84.5 -36.5t-107.5 -14.5q-103 0 -156.5 41.5t-53.5 106.5q0 54 35.5 105t106.5 93h-94v1451h302v-1451h-45q-20 -11 -38 -24.5t-31.5 -30t-22 -35t-8.5 -39.5q0 -28 16.5 -44t46.5 -16q17 0 28 1.5t17.5 4t11.5 4t10 1.5q19 0 26 -17z" />
    <glyph glyph-name="iogonek" unicode="&#x12f;" horiz-adv-x="520" 
d="M257 1157q-34 0 -64.5 13t-53.5 36t-36.5 53t-13.5 65t13.5 65.5t36.5 53.5t53.5 36t64.5 13q36 0 67.5 -13t55 -36t37.5 -53.5t14 -65.5t-14 -65t-37.5 -53t-55 -36t-67.5 -13zM470 -295q-34 -22 -84.5 -36.5t-107.5 -14.5q-103 0 -156.5 41.5t-53.5 106.5
q0 54 35.5 105t106.5 93h-88v1031h276v-1031h-25q-20 -11 -38 -24.5t-31.5 -30t-22 -35t-8.5 -39.5q0 -28 16.5 -44t46.5 -16q17 0 28 1.5t17.5 4t11.5 4t10 1.5q19 0 26 -17z" />
    <glyph glyph-name="Idotaccent" unicode="&#x130;" horiz-adv-x="606" 
d="M454 0h-302v1451h302v-1451zM469 1697q0 -32 -13 -60.5t-36 -50.5t-53.5 -34.5t-64.5 -12.5q-32 0 -60.5 12.5t-50.5 34.5t-35 50.5t-13 60.5q0 33 13 62.5t35 51.5t50.5 35t60.5 13q34 0 64.5 -13t53.5 -35t36 -51.5t13 -62.5z" />
    <glyph glyph-name="dotlessi" unicode="&#x131;" horiz-adv-x="522" 
d="M399 1031v-1031h-276v1031h276z" />
    <glyph glyph-name="IJ" unicode="&#x132;" horiz-adv-x="1491" 
d="M454 0h-302v1451h302v-1451zM1352 520q0 -122 -30 -220.5t-90.5 -169t-151.5 -108.5t-212 -38q-55 0 -108.5 6.5t-112.5 20.5l8 88l8 88q3 24 19 38.5t46 14.5q17 0 43.5 -6t65.5 -6q54 0 94 15t67 49t40.5 88.5t13.5 132.5v938h300v-931z" />
    <glyph glyph-name="ij" unicode="&#x133;" horiz-adv-x="1060" 
d="M398 1031v-1031h-276v1031h276zM431 1324q0 -35 -14 -65t-37.5 -53t-55 -36t-67.5 -13q-34 0 -64.5 13t-53.5 36t-36.5 53t-13.5 65t13.5 65.5t36.5 53.5t53.5 36t64.5 13q36 0 67.5 -13t55 -36t37.5 -53.5t14 -65.5zM938 1031v-1051q0 -70 -18 -131.5t-58.5 -107.5
t-106 -73t-161.5 -27q-36 0 -67.5 5t-64.5 14l10 146q2 20 14.5 28t49.5 8t61 6.5t38.5 22.5t20.5 42.5t6 66.5v1051h276zM971 1324q0 -35 -14 -65t-37.5 -53t-55 -36t-67.5 -13q-34 0 -64.5 13t-53.5 36t-36.5 53t-13.5 65t13.5 65.5t36.5 53.5t53.5 36t64.5 13
q36 0 67.5 -13t55 -36t37.5 -53.5t14 -65.5z" />
    <glyph glyph-name="Jcircumflex" unicode="&#x134;" horiz-adv-x="864" 
d="M726 520q0 -122 -30 -220.5t-90.5 -169t-151.5 -108.5t-212 -38q-55 0 -108.5 6.5t-112.5 20.5l8 88l8 88q3 24 19 38.5t46 14.5q17 0 43.5 -6t65.5 -6q54 0 94 15t67 49t40.5 88.5t13.5 132.5v938h300v-931zM947 1550h-200q-16 0 -39.5 6t-48.5 35l-68 94q-5 6 -8.5 12
t-7.5 12q-4 -6 -7.5 -12t-8.5 -12l-68 -94q-25 -29 -48.5 -35t-39.5 -6h-191l242 276h250z" />
    <glyph glyph-name="jcircumflex" unicode="&#x135;" horiz-adv-x="520" 
d="M398 1031v-1051q0 -70 -18 -131.5t-58.5 -107.5t-106 -73t-161.5 -27q-37 0 -68 5t-64 14l10 146q2 20 14.5 28t49.5 8t61 6.5t38.5 22.5t20.5 42.5t6 66.5v1051h276zM622 1168h-184q-16 0 -31 5.5t-31 20.5l-88 95q-5 5 -11 11.5t-11 14.5q-12 -15 -23 -26l-90 -95
q-28 -26 -62 -26h-191l232 283h258z" />
    <glyph glyph-name="uni0136" unicode="&#x136;" horiz-adv-x="1390" 
d="M452 852h59q74 0 107 46l367 491q26 35 57 48.5t76 13.5h260l-462 -595q-45 -58 -93 -83q35 -14 63 -36.5t54 -59.5l474 -677h-267q-26 0 -44.5 4t-32.5 11t-24 17.5t-19 24.5l-373 522q-19 27 -45 38.5t-73 11.5h-84v-629h-300v1451h300v-599zM781 -88q30 0 37 -13.5
t7 -25.5q0 -9 -2 -24.5t-9.5 -40.5t-21.5 -61.5t-38 -86.5q-15 -31 -37.5 -39.5t-57.5 -8.5h-98l51 300h169z" />
    <glyph glyph-name="uni0137" unicode="&#x137;" horiz-adv-x="1091" 
d="M390 1491v-846h46q26 0 41 7.5t30 27.5l228 304q17 23 38.5 35t54.5 12h252l-296 -376q-35 -47 -81 -74q23 -16 40 -37t33 -47l319 -497h-248q-32 0 -55 10.5t-38 37.5l-232 379q-14 24 -29 31t-45 7h-58v-465h-276v1491h276zM637 -88q30 0 37 -13.5t7 -25.5
q0 -9 -2 -24.5t-9.5 -40.5t-21.5 -61.5t-38 -86.5q-15 -31 -37.5 -39.5t-57.5 -8.5h-98l51 300h169z" />
    <glyph glyph-name="kgreenlandic" unicode="&#x138;" horiz-adv-x="1091" 
d="M390 1031v-386h46q26 0 41 7.5t30 27.5l228 304q17 23 38.5 35t54.5 12h252l-296 -376q-35 -47 -81 -74q23 -16 40 -37t33 -47l319 -497h-248q-32 0 -55 10.5t-38 37.5l-232 379q-14 24 -29 31t-45 7h-58v-465h-276v1031h276z" />
    <glyph glyph-name="Lacute" unicode="&#x139;" horiz-adv-x="1044" 
d="M1013 244v-244h-861v1451h300v-1207h561zM761 1864l-323 -286q-11 -9 -21 -14.5t-20.5 -8.5t-23 -4t-27.5 -1h-200l200 271q11 15 21.5 23.5t23 13t28.5 5.5t37 1h305z" />
    <glyph glyph-name="lacute" unicode="&#x13a;" horiz-adv-x="508" 
d="M392 1491v-1491h-276v1491h276zM695 1864l-323 -286q-11 -9 -21 -14.5t-20.5 -8.5t-23 -4t-27.5 -1h-200l200 271q11 15 21.5 23.5t23 13t28.5 5.5t37 1h305z" />
    <glyph glyph-name="uni013B" unicode="&#x13b;" horiz-adv-x="1044" 
d="M1013 244v-244h-861v1451h300v-1207h561zM649 -88q30 0 37 -13.5t7 -25.5q0 -9 -2 -24.5t-9.5 -40.5t-21.5 -61.5t-38 -86.5q-15 -31 -37.5 -39.5t-57.5 -8.5h-98l51 300h169z" />
    <glyph glyph-name="uni013C" unicode="&#x13c;" horiz-adv-x="508" 
d="M392 1491v-1491h-276v1491h276zM348 -88q30 0 37 -13.5t7 -25.5q0 -9 -2 -24.5t-9.5 -40.5t-21.5 -61.5t-38 -86.5q-15 -31 -37.5 -39.5t-57.5 -8.5h-98l51 300h169z" />
    <glyph glyph-name="Lcaron" unicode="&#x13d;" horiz-adv-x="1044" 
d="M1013 244v-244h-861v1451h300v-1207h561zM837 1493q30 0 37 -13.5t7 -25.5q0 -9 -3.5 -24t-14.5 -44.5t-30.5 -77t-52.5 -120.5q-15 -30 -37.5 -39t-57.5 -9h-98l64 353h186z" />
    <glyph glyph-name="lcaron" unicode="&#x13e;" horiz-adv-x="507" 
d="M392 1491v-1491h-276v1491h276zM727 1493q30 0 37 -13.5t7 -25.5q0 -9 -3.5 -24t-14.5 -44.5t-30.5 -77t-52.5 -120.5q-15 -30 -37.5 -39t-57.5 -9h-98l64 353h186z" />
    <glyph glyph-name="Ldot" unicode="&#x13f;" horiz-adv-x="1090" 
d="M1013 244v-244h-861v1451h300v-1207h561zM1001 800q0 -34 -14 -64.5t-37.5 -53t-55 -36t-67.5 -13.5q-34 0 -64.5 13.5t-53.5 36t-36.5 53t-13.5 64.5q0 35 13.5 65.5t36.5 53.5t53.5 36.5t64.5 13.5q36 0 67.5 -13.5t55 -36.5t37.5 -53.5t14 -65.5z" />
    <glyph glyph-name="ldot" unicode="&#x140;" horiz-adv-x="798" 
d="M392 1491v-1491h-276v1491h276zM498 766q0 33 12.5 62.5t34.5 51t51.5 34t64.5 12.5q34 0 64 -12.5t52 -34t34.5 -51t12.5 -62.5q0 -34 -12.5 -63t-34.5 -50.5t-52 -33.5t-64 -12q-35 0 -64.5 12t-51.5 33.5t-34.5 50.5t-12.5 63z" />
    <glyph glyph-name="Lslash" unicode="&#x141;" horiz-adv-x="1077" 
d="M1046 244v-244h-861v517l-177 -88v205q0 36 33 51l144 75v691h300v-557l348 173v-200q0 -43 -37 -57l-311 -161v-405h561z" />
    <glyph glyph-name="lslash" unicode="&#x142;" horiz-adv-x="677" 
d="M649 1041v-156q0 -43 -37 -58l-136 -56v-771h-276v676l-163 -65v161q0 36 33 51l130 55v613h276v-518z" />
    <glyph glyph-name="Nacute" unicode="&#x143;" horiz-adv-x="1547" 
d="M1395 1451v-1451h-155q-35 0 -59 11.5t-47 39.5l-723 920q3 -35 4.5 -69t1.5 -63v-839h-265v1451h158q19 0 32.5 -1.5t24.5 -7t21 -14.5t22 -24l728 -924q-4 38 -6 73.5t-2 67.5v830h265zM1216 1864l-323 -286q-11 -9 -21 -14.5t-20.5 -8.5t-23 -4t-27.5 -1h-200l200 271
q11 15 21.5 23.5t23 13t28.5 5.5t37 1h305z" />
    <glyph glyph-name="nacute" unicode="&#x144;" horiz-adv-x="1134" 
d="M370 911q31 30 64.5 55t71 43t81 28t94.5 10q84 0 149 -29t109.5 -81t67 -124t22.5 -158v-655h-275v655q0 86 -40 133.5t-118 47.5q-58 0 -109 -25t-97 -70v-741h-276v1031h170q52 0 69 -48zM947 1467l-253 -262q-20 -21 -39.5 -29.5t-50.5 -8.5h-166l140 244
q15 28 36.5 42t65.5 14h267z" />
    <glyph glyph-name="uni0145" unicode="&#x145;" horiz-adv-x="1547" 
d="M1395 1451v-1451h-155q-35 0 -59 11.5t-47 39.5l-723 920q3 -35 4.5 -69t1.5 -63v-839h-265v1451h158q19 0 32.5 -1.5t24.5 -7t21 -14.5t22 -24l728 -924q-4 38 -6 73.5t-2 67.5v830h265zM861 -88q30 0 37 -13.5t7 -25.5q0 -9 -2 -24.5t-9.5 -40.5t-21.5 -61.5t-38 -86.5
q-15 -31 -37.5 -39.5t-57.5 -8.5h-98l51 300h169z" />
    <glyph glyph-name="uni0146" unicode="&#x146;" horiz-adv-x="1134" 
d="M370 911q31 30 64.5 55t71 43t81 28t94.5 10q84 0 149 -29t109.5 -81t67 -124t22.5 -158v-655h-275v655q0 86 -40 133.5t-118 47.5q-58 0 -109 -25t-97 -70v-741h-276v1031h170q52 0 69 -48zM650 -88q30 0 37 -13.5t7 -25.5q0 -9 -2 -24.5t-9.5 -40.5t-21.5 -61.5
t-38 -86.5q-15 -31 -37.5 -39.5t-57.5 -8.5h-98l51 300h169z" />
    <glyph glyph-name="Ncaron" unicode="&#x147;" horiz-adv-x="1547" 
d="M1395 1451v-1451h-155q-35 0 -59 11.5t-47 39.5l-723 920q3 -35 4.5 -69t1.5 -63v-839h-265v1451h158q19 0 32.5 -1.5t24.5 -7t21 -14.5t22 -24l728 -924q-4 38 -6 73.5t-2 67.5v830h265zM1151 1826l-243 -276h-258l-243 276h200q8 0 18 -0.5t21 -3.5t21.5 -9.5
t19.5 -18.5l76 -104q5 -6 8.5 -12t7.5 -12q4 6 7.5 12t8.5 12l75 103q9 12 19.5 19t21.5 10t21.5 3.5t18.5 0.5h200z" />
    <glyph glyph-name="ncaron" unicode="&#x148;" horiz-adv-x="1134" 
d="M370 911q31 30 64.5 55t71 43t81 28t94.5 10q84 0 149 -29t109.5 -81t67 -124t22.5 -158v-655h-275v655q0 86 -40 133.5t-118 47.5q-58 0 -109 -25t-97 -70v-741h-276v1031h170q52 0 69 -48zM939 1451l-232 -283h-258l-232 283h191q17 0 31.5 -5.5t22.5 -12.5l96 -102
q12 -12 24 -27q6 8 11.5 14.5t11.5 12.5l96 102q8 6 23 12t31 6h184z" />
    <glyph glyph-name="napostrophe" unicode="&#x149;" horiz-adv-x="1283" 
d="M210 1547q51 -82 68.5 -170t2.5 -173.5t-62.5 -164.5t-127.5 -142l-86 52q-12 7 -16.5 16.5t-4 19t4.5 18t10 14.5q19 22 38.5 61.5t27.5 90t-1 109.5t-46 119q-20 31 -11 54.5t36 32.5zM520 911q31 30 64.5 55t71 43t81 28t94.5 10q84 0 149 -29t109.5 -81t67 -124
t22.5 -158v-655h-275v655q0 86 -40 133.5t-118 47.5q-58 0 -109 -25t-97 -70v-741h-276v1031h170q52 0 69 -48z" />
    <glyph glyph-name="Eng" unicode="&#x14a;" horiz-adv-x="1547" 
d="M1395 1451v-1400q0 -89 -20.5 -163.5t-66.5 -129t-118.5 -85t-175.5 -30.5q-28 0 -52 2.5t-47 7.5t-46.5 13t-48.5 19l30 118q9 32 25 41.5t36 9.5q16 0 31.5 -5t46.5 -5q71 0 106 42.5t35 133.5v36l-719 915q3 -35 4.5 -69t1.5 -63v-839h-265v1451h158q19 0 32.5 -1.5
t24.5 -7t21 -14.5t22 -24l728 -924q-4 38 -6 73.5t-2 67.5v830h265z" />
    <glyph glyph-name="eng" unicode="&#x14b;" horiz-adv-x="1134" 
d="M370 911q31 30 64.5 55t71 43t81 28t94.5 10q84 0 149 -29t109.5 -81t67 -124t22.5 -158v-606q0 -89 -22.5 -163.5t-69.5 -129t-121.5 -85t-177.5 -30.5q-28 0 -52 2.5t-47 7.5t-46.5 12.5t-48.5 18.5l30 118q9 32 25 42t36 10q16 0 31.5 -5.5t46.5 -5.5q71 0 106 42.5
t35 133.5v638q0 86 -40 133.5t-118 47.5q-58 0 -109 -25t-97 -70v-741h-276v1031h170q52 0 69 -48z" />
    <glyph glyph-name="Omacron" unicode="&#x14c;" horiz-adv-x="1622" 
d="M1554 726q0 -159 -53.5 -295t-151 -235t-234.5 -155.5t-304 -56.5t-304 56.5t-235 155.5t-151.5 235t-53.5 295t53.5 294.5t151.5 234.5t235 155.5t304 56.5t304 -56.5t234.5 -156t151 -235t53.5 -293.5zM1247 726q0 114 -30 204.5t-86.5 154t-137 97t-182.5 33.5
t-183 -33.5t-137.5 -97t-86.5 -154t-30 -204.5q0 -115 30 -205.5t86.5 -153.5t137.5 -96.5t183 -33.5t182.5 33.5t137 96.5t86.5 153.5t30 205.5zM504 1719h618v-155h-618v155z" />
    <glyph glyph-name="omacron" unicode="&#x14d;" horiz-adv-x="1155" 
d="M579 1047q116 0 211 -37t163 -105.5t105 -166.5t37 -221t-37 -221.5t-105 -167.5t-163 -106t-211 -37q-117 0 -212.5 37t-163.5 106t-105.5 167.5t-37.5 221.5t37.5 221t105.5 166.5t163.5 105.5t212.5 37zM579 192q118 0 175 81.5t57 242.5q0 160 -57 241.5t-175 81.5
q-121 0 -178 -81.5t-57 -241.5q0 -161 57 -242.5t178 -81.5zM275 1381h608v-172h-608v172z" />
    <glyph glyph-name="Obreve" unicode="&#x14e;" horiz-adv-x="1622" 
d="M1554 726q0 -159 -53.5 -295t-151 -235t-234.5 -155.5t-304 -56.5t-304 56.5t-235 155.5t-151.5 235t-53.5 295t53.5 294.5t151.5 234.5t235 155.5t304 56.5t304 -56.5t234.5 -156t151 -235t53.5 -293.5zM1247 726q0 114 -30 204.5t-86.5 154t-137 97t-182.5 33.5
t-183 -33.5t-137.5 -97t-86.5 -154t-30 -204.5q0 -115 30 -205.5t86.5 -153.5t137.5 -96.5t183 -33.5t182.5 33.5t137 96.5t86.5 153.5t30 205.5zM813 1546q-77 0 -140 16.5t-108 50.5t-70 86.5t-25 123.5h211q0 -55 29 -85t103 -30t103 30t29 85h211q0 -64 -25 -115.5
t-70 -87.5t-108.5 -55t-139.5 -19z" />
    <glyph glyph-name="obreve" unicode="&#x14f;" horiz-adv-x="1155" 
d="M579 1047q116 0 211 -37t163 -105.5t105 -166.5t37 -221t-37 -221.5t-105 -167.5t-163 -106t-211 -37q-117 0 -212.5 37t-163.5 106t-105.5 167.5t-37.5 221.5t37.5 221t105.5 166.5t163.5 105.5t212.5 37zM579 192q118 0 175 81.5t57 242.5q0 160 -57 241.5t-175 81.5
q-121 0 -178 -81.5t-57 -241.5q0 -161 57 -242.5t178 -81.5zM579 1160q-89 0 -149.5 23t-97 63t-52 93t-15.5 112h193q0 -29 5 -51.5t18.5 -38t37 -23.5t60.5 -8t60.5 8t37 23.5t18.5 38t5 51.5h193q0 -59 -15.5 -112t-52 -93t-97 -63t-149.5 -23z" />
    <glyph glyph-name="Ohungarumlaut" unicode="&#x150;" horiz-adv-x="1622" 
d="M1554 726q0 -159 -53.5 -295t-151 -235t-234.5 -155.5t-304 -56.5t-304 56.5t-235 155.5t-151.5 235t-53.5 295t53.5 294.5t151.5 234.5t235 155.5t304 56.5t304 -56.5t234.5 -156t151 -235t53.5 -293.5zM1247 726q0 114 -30 204.5t-86.5 154t-137 97t-182.5 33.5
t-183 -33.5t-137.5 -97t-86.5 -154t-30 -204.5q0 -115 30 -205.5t86.5 -153.5t137.5 -96.5t183 -33.5t182.5 33.5t137 96.5t86.5 153.5t30 205.5zM961 1826l-207 -237q-22 -19 -40.5 -29t-49.5 -10h-130l134 220q16 26 43.5 41t70.5 15h179zM1368 1826l-262 -237
q-23 -20 -45.5 -29.5t-53.5 -9.5h-148l182 220q21 25 50 40.5t72 15.5h205z" />
    <glyph glyph-name="ohungarumlaut" unicode="&#x151;" horiz-adv-x="1155" 
d="M579 1047q116 0 211 -37t163 -105.5t105 -166.5t37 -221t-37 -221.5t-105 -167.5t-163 -106t-211 -37q-117 0 -212.5 37t-163.5 106t-105.5 167.5t-37.5 221.5t37.5 221t105.5 166.5t163.5 105.5t212.5 37zM579 192q118 0 175 81.5t57 242.5q0 160 -57 241.5t-175 81.5
q-121 0 -178 -81.5t-57 -241.5q0 -161 57 -242.5t178 -81.5zM716 1467l-200 -262q-17 -23 -38 -30.5t-52 -7.5h-113l122 244q14 28 36.5 42t65.5 14h179zM1078 1467l-255 -262q-20 -21 -39.5 -29.5t-50.5 -8.5h-130l177 244q9 13 18 23.5t20.5 17.5t27 11t36.5 4h196z" />
    <glyph glyph-name="OE" unicode="&#x152;" horiz-adv-x="2156" 
d="M770 228q91 0 163.5 35t122.5 99.5t76.5 156.5t26.5 207q0 114 -26.5 206t-76.5 156.5t-122.5 99.5t-163.5 35q-93 0 -166 -35t-123.5 -99.5t-77 -156.5t-26.5 -206q0 -115 26.5 -207t77 -156.5t123.5 -99.5t166 -35zM1461 1216v-373h484v-227h-484v-381h622v-235h-888
v168q-87 -87 -201.5 -135t-254.5 -48q-150 0 -273.5 56t-211.5 155.5t-136.5 235t-48.5 294.5t48.5 294.5t136.5 234.5t211.5 155.5t273.5 56.5q140 0 254.5 -48t201.5 -136v168h888v-235h-622z" />
    <glyph glyph-name="oe" unicode="&#x153;" horiz-adv-x="1754" 
d="M560 192q110 0 162 81.5t52 242.5q0 160 -52 241.5t-162 81.5q-112 0 -164 -81.5t-52 -241.5q0 -161 52 -242.5t164 -81.5zM1449 617q0 44 -10.5 86.5t-32.5 75.5t-57.5 53.5t-84.5 20.5q-97 0 -149.5 -61.5t-66.5 -174.5h401zM1049 453q15 -134 80.5 -196.5t166.5 -62.5
q54 0 92 13.5t68 30t54.5 30t50.5 13.5q30 0 48 -24l82 -100q-44 -51 -96 -84.5t-107 -53t-110.5 -27t-107.5 -7.5q-105 0 -199 46t-157 144q-61 -92 -157.5 -141t-222.5 -49q-102 0 -189 37t-150.5 106t-99 167.5t-35.5 221.5t36 221t100 166.5t153 105.5t195 37
q121 0 215 -48t154 -138q57 85 147.5 135.5t215.5 50.5q90 0 166.5 -34t132.5 -98t88 -154.5t32 -203.5q0 -31 -2.5 -51t-9.5 -32t-18.5 -16.5t-30.5 -4.5h-585z" />
    <glyph glyph-name="Racute" unicode="&#x154;" horiz-adv-x="1299" 
d="M606 764q73 0 126 18.5t87 51t50 76.5t16 96q0 103 -68.5 160t-208.5 57h-156v-459h154zM1309 0h-271q-76 0 -110 58l-276 445q-17 26 -37.5 38t-60.5 12h-102v-553h-300v1451h456q152 0 260 -31.5t177 -87.5t101 -133.5t32 -170.5q0 -72 -20.5 -136.5t-59.5 -117.5
t-96 -94t-130 -66q29 -16 54 -38.5t45 -53.5zM1062 1864l-323 -286q-11 -9 -21 -14.5t-20.5 -8.5t-23 -4t-27.5 -1h-200l200 271q11 15 21.5 23.5t23 13t28.5 5.5t37 1h305z" />
    <glyph glyph-name="racute" unicode="&#x155;" horiz-adv-x="754" 
d="M373 861q49 88 113 139t150 51q70 0 114 -33l-18 -204q-5 -20 -15.5 -27.5t-28.5 -7.5q-16 0 -46 4.5t-56 4.5q-38 0 -67.5 -11t-52.5 -31t-41.5 -49t-34.5 -66v-631h-276v1031h163q42 0 58 -15t23 -52zM791 1467l-253 -262q-20 -21 -39.5 -29.5t-50.5 -8.5h-166l140 244
q15 28 36.5 42t65.5 14h267z" />
    <glyph glyph-name="uni0156" unicode="&#x156;" horiz-adv-x="1299" 
d="M606 764q73 0 126 18.5t87 51t50 76.5t16 96q0 103 -68.5 160t-208.5 57h-156v-459h154zM1309 0h-271q-76 0 -110 58l-276 445q-17 26 -37.5 38t-60.5 12h-102v-553h-300v1451h456q152 0 260 -31.5t177 -87.5t101 -133.5t32 -170.5q0 -72 -20.5 -136.5t-59.5 -117.5
t-96 -94t-130 -66q29 -16 54 -38.5t45 -53.5zM763 -88q30 0 37 -13.5t7 -25.5q0 -9 -2 -24.5t-9.5 -40.5t-21.5 -61.5t-38 -86.5q-15 -31 -37.5 -39.5t-57.5 -8.5h-98l51 300h169z" />
    <glyph glyph-name="uni0157" unicode="&#x157;" horiz-adv-x="754" 
d="M373 861q49 88 113 139t150 51q70 0 114 -33l-18 -204q-5 -20 -15.5 -27.5t-28.5 -7.5q-16 0 -46 4.5t-56 4.5q-38 0 -67.5 -11t-52.5 -31t-41.5 -49t-34.5 -66v-631h-276v1031h163q42 0 58 -15t23 -52zM348 -88q30 0 37 -13.5t7 -25.5q0 -9 -2 -24.5t-9.5 -40.5
t-21.5 -61.5t-38 -86.5q-15 -31 -37.5 -39.5t-57.5 -8.5h-98l51 300h169z" />
    <glyph glyph-name="Rcaron" unicode="&#x158;" horiz-adv-x="1299" 
d="M606 764q73 0 126 18.5t87 51t50 76.5t16 96q0 103 -68.5 160t-208.5 57h-156v-459h154zM1309 0h-271q-76 0 -110 58l-276 445q-17 26 -37.5 38t-60.5 12h-102v-553h-300v1451h456q152 0 260 -31.5t177 -87.5t101 -133.5t32 -170.5q0 -72 -20.5 -136.5t-59.5 -117.5
t-96 -94t-130 -66q29 -16 54 -38.5t45 -53.5zM997 1826l-243 -276h-258l-243 276h200q8 0 18 -0.5t21 -3.5t21.5 -9.5t19.5 -18.5l76 -104q5 -6 8.5 -12t7.5 -12q4 6 7.5 12t8.5 12l75 103q9 12 19.5 19t21.5 10t21.5 3.5t18.5 0.5h200z" />
    <glyph glyph-name="rcaron" unicode="&#x159;" horiz-adv-x="753" 
d="M372 861q49 88 113 139t150 51q70 0 114 -33l-18 -204q-5 -20 -15.5 -27.5t-28.5 -7.5q-16 0 -46 4.5t-56 4.5q-38 0 -67.5 -11t-52.5 -31t-41.5 -49t-34.5 -66v-631h-276v1031h163q42 0 58 -15t23 -52zM783 1451l-232 -283h-258l-232 283h191q17 0 31.5 -5.5t22.5 -12.5
l96 -102q12 -12 24 -27q6 8 11.5 14.5t11.5 12.5l96 102q8 6 23 12t31 6h184z" />
    <glyph glyph-name="Sacute" unicode="&#x15a;" horiz-adv-x="1102" 
d="M938 1173q-14 -23 -28.5 -33.5t-37.5 -10.5q-22 0 -47.5 15.5t-59.5 33.5t-78 33.5t-103 15.5q-104 0 -156 -46.5t-52 -121.5q0 -48 28.5 -79.5t75 -54.5t105.5 -41t121 -39.5t121 -50.5t105.5 -73t75 -107.5t28.5 -154.5q0 -99 -34.5 -185.5t-99.5 -151t-160.5 -101.5
t-216.5 -37q-69 0 -137.5 14t-132 39t-119.5 60t-98 78l88 142q11 16 29 26.5t38 10.5q27 0 57 -20t69 -44t90.5 -44t123.5 -20q105 0 162.5 48t57.5 143q0 55 -28.5 89t-74.5 57t-105 39.5t-121 36.5t-121 48t-105 74t-74.5 114t-28.5 169q0 81 32 157t94 135t152.5 95
t207.5 36q131 0 242.5 -40.5t188.5 -112.5zM1033 1864l-323 -286q-11 -9 -21 -14.5t-20.5 -8.5t-23 -4t-27.5 -1h-200l200 271q11 15 21.5 23.5t23 13t28.5 5.5t37 1h305z" />
    <glyph glyph-name="sacute" unicode="&#x15b;" horiz-adv-x="885" 
d="M755 819q-11 -17 -22.5 -24.5t-31.5 -7.5t-41 10t-47 21.5t-59.5 21.5t-77.5 10q-67 0 -104 -27.5t-37 -72.5q0 -31 21 -52t55.5 -36.5t78.5 -29t90.5 -29.5t90.5 -37t78.5 -52.5t55.5 -76t21 -107.5q0 -75 -27.5 -138.5t-80.5 -109.5t-132 -72t-182 -26q-53 0 -105 9.5
t-99 27t-88 40.5t-71 50l64 103q11 18 27.5 28t42.5 10q25 0 46 -12.5t47 -27t61.5 -27t88.5 -12.5q40 0 69 9t47 24.5t26.5 35t8.5 40.5q0 34 -21.5 55.5t-56 37.5t-79.5 29t-91.5 29t-91 38t-79 55.5t-56 82.5t-21.5 119q0 64 25 121.5t75 101.5t124.5 70t172.5 26
q110 0 200 -36t148 -94zM827 1467l-253 -262q-20 -21 -39.5 -29.5t-50.5 -8.5h-166l140 244q15 28 36.5 42t65.5 14h267z" />
    <glyph glyph-name="Scircumflex" unicode="&#x15c;" horiz-adv-x="1102" 
d="M938 1173q-14 -23 -28.5 -33.5t-37.5 -10.5q-22 0 -47.5 15.5t-59.5 33.5t-78 33.5t-103 15.5q-104 0 -156 -46.5t-52 -121.5q0 -48 28.5 -79.5t75 -54.5t105.5 -41t121 -39.5t121 -50.5t105.5 -73t75 -107.5t28.5 -154.5q0 -99 -34.5 -185.5t-99.5 -151t-160.5 -101.5
t-216.5 -37q-69 0 -137.5 14t-132 39t-119.5 60t-98 78l88 142q11 16 29 26.5t38 10.5q27 0 57 -20t69 -44t90.5 -44t123.5 -20q105 0 162.5 48t57.5 143q0 55 -28.5 89t-74.5 57t-105 39.5t-121 36.5t-121 48t-105 74t-74.5 114t-28.5 169q0 81 32 157t94 135t152.5 95
t207.5 36q131 0 242.5 -40.5t188.5 -112.5zM967 1550h-200q-16 0 -39.5 6t-48.5 35l-68 94q-5 6 -8.5 12t-7.5 12q-4 -6 -7.5 -12t-8.5 -12l-68 -94q-25 -29 -48.5 -35t-39.5 -6h-191l242 276h250z" />
    <glyph glyph-name="scircumflex" unicode="&#x15d;" horiz-adv-x="885" 
d="M755 819q-11 -17 -22.5 -24.5t-31.5 -7.5t-41 10t-47 21.5t-59.5 21.5t-77.5 10q-67 0 -104 -27.5t-37 -72.5q0 -31 21 -52t55.5 -36.5t78.5 -29t90.5 -29.5t90.5 -37t78.5 -52.5t55.5 -76t21 -107.5q0 -75 -27.5 -138.5t-80.5 -109.5t-132 -72t-182 -26q-53 0 -105 9.5
t-99 27t-88 40.5t-71 50l64 103q11 18 27.5 28t42.5 10q25 0 46 -12.5t47 -27t61.5 -27t88.5 -12.5q40 0 69 9t47 24.5t26.5 35t8.5 40.5q0 34 -21.5 55.5t-56 37.5t-79.5 29t-91.5 29t-91 38t-79 55.5t-56 82.5t-21.5 119q0 64 25 121.5t75 101.5t124.5 70t172.5 26
q110 0 200 -36t148 -94zM819 1168h-184q-16 0 -31 5.5t-31 20.5l-88 95q-5 5 -11 11.5t-11 14.5q-12 -15 -23 -26l-90 -95q-28 -26 -62 -26h-191l232 283h258z" />
    <glyph glyph-name="Scedilla" unicode="&#x15e;" horiz-adv-x="1102" 
d="M938 1173q-14 -23 -28.5 -33.5t-37.5 -10.5q-22 0 -47.5 15.5t-59.5 33.5t-78 33.5t-103 15.5q-104 0 -156 -46.5t-52 -121.5q0 -48 28.5 -79.5t75 -54.5t105.5 -41t121 -39.5t121 -50.5t105.5 -73t75 -107.5t28.5 -154.5q0 -87 -27 -165t-78.5 -140t-126.5 -104
t-171 -57l-13 -49q47 -11 79 -26.5t51.5 -34.5t28 -42t8.5 -48q0 -35 -18.5 -62.5t-52 -46.5t-80.5 -29.5t-104 -10.5q-41 0 -76.5 4.5t-70.5 14.5l25 85q6 24 31 24q14 0 30 -5.5t42 -5.5q30 0 44 11t14 26q0 25 -33.5 36.5t-107.5 22.5l44 129q-63 5 -124.5 20.5t-118 40
t-106 57t-87.5 71.5l88 142q11 16 29 26.5t38 10.5q27 0 57 -20t69 -44t90.5 -44t123.5 -20q105 0 162.5 48t57.5 143q0 55 -28.5 89t-74.5 57t-105 39.5t-121 36.5t-121 48t-105 74t-74.5 114t-28.5 169q0 81 32 157t94 135t152.5 95t207.5 36q131 0 242.5 -40.5
t188.5 -112.5z" />
    <glyph glyph-name="scedilla" unicode="&#x15f;" horiz-adv-x="885" 
d="M755 819q-11 -17 -22.5 -24.5t-31.5 -7.5t-41 10t-47 21.5t-59.5 21.5t-77.5 10q-67 0 -104 -27.5t-37 -72.5q0 -31 21 -52t55.5 -36.5t78.5 -29t90.5 -29.5t90.5 -37t78.5 -52.5t55.5 -76t21 -107.5q0 -66 -21 -123.5t-62.5 -101.5t-103 -74t-141.5 -41l-13 -46
q47 -11 79 -26.5t51.5 -34.5t28 -42t8.5 -48q0 -35 -18.5 -62.5t-52 -46.5t-80.5 -29.5t-104 -10.5q-41 0 -76.5 4.5t-70.5 14.5l25 85q6 24 31 24q14 0 30 -5.5t42 -5.5q30 0 44 11t14 26q0 25 -33.5 36.5t-107.5 22.5l45 131q-44 5 -87 16t-81.5 27.5t-72 36.5t-58.5 43
l64 103q11 18 27.5 28t42.5 10q25 0 46 -12.5t47 -27t61.5 -27t88.5 -12.5q40 0 69 9t47 24.5t26.5 35t8.5 40.5q0 34 -21.5 55.5t-56 37.5t-79.5 29t-91.5 29t-91 38t-79 55.5t-56 82.5t-21.5 119q0 64 25 121.5t75 101.5t124.5 70t172.5 26q110 0 200 -36t148 -94z" />
    <glyph glyph-name="Scaron" unicode="&#x160;" horiz-adv-x="1102" 
d="M938 1173q-14 -23 -28.5 -33.5t-37.5 -10.5q-22 0 -47.5 15.5t-59.5 33.5t-78 33.5t-103 15.5q-104 0 -156 -46.5t-52 -121.5q0 -48 28.5 -79.5t75 -54.5t105.5 -41t121 -39.5t121 -50.5t105.5 -73t75 -107.5t28.5 -154.5q0 -99 -34.5 -185.5t-99.5 -151t-160.5 -101.5
t-216.5 -37q-69 0 -137.5 14t-132 39t-119.5 60t-98 78l88 142q11 16 29 26.5t38 10.5q27 0 57 -20t69 -44t90.5 -44t123.5 -20q105 0 162.5 48t57.5 143q0 55 -28.5 89t-74.5 57t-105 39.5t-121 36.5t-121 48t-105 74t-74.5 114t-28.5 169q0 81 32 157t94 135t152.5 95
t207.5 36q131 0 242.5 -40.5t188.5 -112.5zM967 1826l-243 -276h-258l-243 276h200q8 0 18 -0.5t21 -3.5t21.5 -9.5t19.5 -18.5l76 -104q5 -6 8.5 -12t7.5 -12q4 6 7.5 12t8.5 12l75 103q9 12 19.5 19t21.5 10t21.5 3.5t18.5 0.5h200z" />
    <glyph glyph-name="scaron" unicode="&#x161;" horiz-adv-x="885" 
d="M755 819q-11 -17 -22.5 -24.5t-31.5 -7.5t-41 10t-47 21.5t-59.5 21.5t-77.5 10q-67 0 -104 -27.5t-37 -72.5q0 -31 21 -52t55.5 -36.5t78.5 -29t90.5 -29.5t90.5 -37t78.5 -52.5t55.5 -76t21 -107.5q0 -75 -27.5 -138.5t-80.5 -109.5t-132 -72t-182 -26q-53 0 -105 9.5
t-99 27t-88 40.5t-71 50l64 103q11 18 27.5 28t42.5 10q25 0 46 -12.5t47 -27t61.5 -27t88.5 -12.5q40 0 69 9t47 24.5t26.5 35t8.5 40.5q0 34 -21.5 55.5t-56 37.5t-79.5 29t-91.5 29t-91 38t-79 55.5t-56 82.5t-21.5 119q0 64 25 121.5t75 101.5t124.5 70t172.5 26
q110 0 200 -36t148 -94zM819 1451l-232 -283h-258l-232 283h191q17 0 31.5 -5.5t22.5 -12.5l96 -102q12 -12 24 -27q6 8 11.5 14.5t11.5 12.5l96 102q8 6 23 12t31 6h184z" />
    <glyph glyph-name="uni0162" unicode="&#x162;" horiz-adv-x="1208" 
d="M682 0l-15 -56q47 -11 79 -26.5t51.5 -34.5t28 -42t8.5 -48q0 -35 -18.5 -62.5t-52 -46.5t-80.5 -29.5t-104 -10.5q-41 0 -76.5 4.5t-70.5 14.5l25 85q6 24 31 24q14 0 30 -5.5t42 -5.5q30 0 44 11t14 26q0 25 -33.5 36.5t-107.5 22.5l49 143h-72v1209h-424v242h1149
v-242h-424v-1209h-73z" />
    <glyph glyph-name="uni0163" unicode="&#x163;" horiz-adv-x="756" 
d="M749 75q-45 -36 -100 -57.5t-115 -29.5l-12 -44q47 -11 79 -26.5t51.5 -34.5t28 -42t8.5 -48q0 -35 -18.5 -62.5t-52 -46.5t-80.5 -29.5t-104 -10.5q-41 0 -76.5 4.5t-70.5 14.5l25 85q6 24 31 24q14 0 30 -5.5t42 -5.5q30 0 44 11t14 26q0 25 -33.5 36.5t-107.5 22.5
l47 138q-97 23 -147.5 96.5t-50.5 185.5v556h-97q-22 0 -37.5 14t-15.5 42v108l165 30l56 267q11 45 61 45h144v-314h266v-192h-266v-538q0 -43 20.5 -68t58.5 -25q20 0 34 4.5t24 10t18.5 10t17.5 4.5q12 0 20 -5.5t16 -18.5l83 -132v0z" />
    <glyph glyph-name="Tcaron" unicode="&#x164;" horiz-adv-x="1208" 
d="M1179 1209h-424v-1209h-301v1209h-424v242h1149v-242zM980 1826l-243 -276h-258l-243 276h200q8 0 18 -0.5t21 -3.5t21.5 -9.5t19.5 -18.5l76 -104q5 -6 8.5 -12t7.5 -12q4 6 7.5 12t8.5 12l75 103q9 12 19.5 19t21.5 10t21.5 3.5t18.5 0.5h200z" />
    <glyph glyph-name="tcaron" unicode="&#x165;" horiz-adv-x="754" 
d="M470 -16q-70 0 -124 20.5t-91 58.5t-56 92t-19 122v556h-97q-22 0 -37.5 14t-15.5 42v108l165 30l56 267q11 45 61 45h144v-314h266v-192h-266v-538q0 -43 20.5 -68t58.5 -25q20 0 34 4.5t24 10t18.5 10t17.5 4.5q12 0 20 -5.5t16 -18.5l83 -132q-57 -45 -129 -68
t-149 -23zM850 1493q30 0 37 -13.5t7 -25.5q0 -9 -3.5 -24t-14.5 -44.5t-30.5 -77t-52.5 -120.5q-15 -30 -37.5 -39t-57.5 -9h-98l64 353h186z" />
    <glyph glyph-name="Tbar" unicode="&#x166;" horiz-adv-x="1231" 
d="M766 1209v-356h307v-167h-307v-686h-301v686h-307v167h307v356h-424v242h1149v-242h-424z" />
    <glyph glyph-name="tbar" unicode="&#x167;" horiz-adv-x="763" 
d="M57 695h125v138h-97q-22 0 -37.5 14t-15.5 42v108l165 30l56 267q11 45 61 45h144v-314h266v-192h-266v-138h275v-167h-275v-233q0 -43 20.5 -68t58.5 -25q20 0 34 4.5t24 10t18.5 10t17.5 4.5q12 0 20 -5.5t16 -18.5l83 -132q-57 -45 -129 -68t-149 -23q-70 0 -124 20.5
t-91 58.5t-56 92t-19 122v251h-125v167z" />
    <glyph glyph-name="Utilde" unicode="&#x168;" horiz-adv-x="1491" 
d="M746 240q73 0 131 24.5t98 69.5t61 109t21 144v864h300v-864q0 -132 -42.5 -242.5t-121.5 -190.5t-192 -125t-255 -45t-255.5 45t-192.5 125t-121.5 190.5t-42.5 242.5v864h300v-864q0 -80 21 -144t61 -109t98 -69.5t132 -24.5zM870 1713q22 0 38 8.5t26 22t15 29.5t5 31
h167q0 -52 -14 -100t-41.5 -85t-68 -59.5t-93.5 -22.5t-91.5 15.5t-69 34t-56 34t-52.5 15.5q-22 0 -37.5 -9t-25 -23t-14.5 -30t-5 -31h-169q0 52 14.5 100.5t42 86t68 60t93.5 22.5t92 -15.5t69 -34t55.5 -34t51.5 -15.5z" />
    <glyph glyph-name="utilde" unicode="&#x169;" horiz-adv-x="1133" 
d="M1019 1031v-1031h-170q-53 0 -68 48l-18 72q-31 -30 -64 -55t-70.5 -43t-81 -28t-94.5 -10q-84 0 -149.5 29t-109.5 81t-67 124t-23 158v655h276v-655q0 -86 39.5 -133.5t117.5 -47.5q58 0 109 25.5t97 69.5v741h276zM673 1372q27 0 43 14.5t16 56.5h168
q0 -59 -16.5 -107t-45.5 -81.5t-69 -52t-86 -18.5q-36 0 -67.5 12.5t-59 27t-50.5 27t-41 12.5q-27 0 -42.5 -15.5t-15.5 -57.5h-170q0 59 16.5 107t46 82t69 52.5t85.5 18.5q37 0 69 -12t59 -27t49.5 -27t41.5 -12z" />
    <glyph glyph-name="Umacron" unicode="&#x16a;" horiz-adv-x="1491" 
d="M746 240q73 0 131 24.5t98 69.5t61 109t21 144v864h300v-864q0 -132 -42.5 -242.5t-121.5 -190.5t-192 -125t-255 -45t-255.5 45t-192.5 125t-121.5 190.5t-42.5 242.5v864h300v-864q0 -80 21 -144t61 -109t98 -69.5t132 -24.5zM437 1719h618v-155h-618v155z" />
    <glyph glyph-name="umacron" unicode="&#x16b;" horiz-adv-x="1133" 
d="M1019 1031v-1031h-170q-53 0 -68 48l-18 72q-31 -30 -64 -55t-70.5 -43t-81 -28t-94.5 -10q-84 0 -149.5 29t-109.5 81t-67 124t-23 158v655h276v-655q0 -86 39.5 -133.5t117.5 -47.5q58 0 109 25.5t97 69.5v741h276zM263 1381h608v-172h-608v172z" />
    <glyph glyph-name="Ubreve" unicode="&#x16c;" horiz-adv-x="1491" 
d="M746 240q73 0 131 24.5t98 69.5t61 109t21 144v864h300v-864q0 -132 -42.5 -242.5t-121.5 -190.5t-192 -125t-255 -45t-255.5 45t-192.5 125t-121.5 190.5t-42.5 242.5v864h300v-864q0 -80 21 -144t61 -109t98 -69.5t132 -24.5zM746 1546q-77 0 -140 16.5t-108 50.5
t-70 86.5t-25 123.5h211q0 -55 29 -85t103 -30t103 30t29 85h211q0 -64 -25 -115.5t-70 -87.5t-108.5 -55t-139.5 -19z" />
    <glyph glyph-name="ubreve" unicode="&#x16d;" horiz-adv-x="1133" 
d="M1019 1031v-1031h-170q-53 0 -68 48l-18 72q-31 -30 -64 -55t-70.5 -43t-81 -28t-94.5 -10q-84 0 -149.5 29t-109.5 81t-67 124t-23 158v655h276v-655q0 -86 39.5 -133.5t117.5 -47.5q58 0 109 25.5t97 69.5v741h276zM567 1160q-89 0 -149.5 23t-97 63t-52 93t-15.5 112
h193q0 -29 5 -51.5t18.5 -38t37 -23.5t60.5 -8t60.5 8t37 23.5t18.5 38t5 51.5h193q0 -59 -15.5 -112t-52 -93t-97 -63t-149.5 -23z" />
    <glyph glyph-name="Uring" unicode="&#x16e;" horiz-adv-x="1491" 
d="M746 240q73 0 131 24.5t98 69.5t61 109t21 144v864h300v-864q0 -132 -42.5 -242.5t-121.5 -190.5t-192 -125t-255 -45t-255.5 45t-192.5 125t-121.5 190.5t-42.5 242.5v864h300v-864q0 -80 21 -144t61 -109t98 -69.5t132 -24.5zM531 1710q0 44 17.5 80.5t47 62.5t68 40
t80.5 14q44 0 84 -14t70 -40t47.5 -62.5t17.5 -80.5q0 -43 -17.5 -78.5t-47.5 -60.5t-70 -39t-84 -14q-42 0 -80.5 14t-68 39t-47 60.5t-17.5 78.5zM662 1710q0 -38 22 -61.5t64 -23.5q38 0 61 23.5t23 61.5q0 40 -23 63.5t-61 23.5q-42 0 -64 -23.5t-22 -63.5z" />
    <glyph glyph-name="uring" unicode="&#x16f;" horiz-adv-x="1133" 
d="M1019 1031v-1031h-170q-53 0 -68 48l-18 72q-31 -30 -64 -55t-70.5 -43t-81 -28t-94.5 -10q-84 0 -149.5 29t-109.5 81t-67 124t-23 158v655h276v-655q0 -86 39.5 -133.5t117.5 -47.5q58 0 109 25.5t97 69.5v741h276zM337 1329q0 48 19 87.5t50.5 67t73 43t87.5 15.5
q47 0 90 -15.5t75.5 -43t51.5 -67t19 -87.5q0 -47 -19 -85t-51.5 -65t-75.5 -42t-90 -15q-46 0 -87.5 15t-73 42t-50.5 65t-19 85zM485 1329q0 -38 22 -61.5t64 -23.5q38 0 61 23.5t23 61.5q0 40 -23 63.5t-61 23.5q-42 0 -64 -23.5t-22 -63.5z" />
    <glyph glyph-name="Uhungarumlaut" unicode="&#x170;" horiz-adv-x="1491" 
d="M746 240q73 0 131 24.5t98 69.5t61 109t21 144v864h300v-864q0 -132 -42.5 -242.5t-121.5 -190.5t-192 -125t-255 -45t-255.5 45t-192.5 125t-121.5 190.5t-42.5 242.5v864h300v-864q0 -80 21 -144t61 -109t98 -69.5t132 -24.5zM894 1826l-207 -237q-22 -19 -40.5 -29
t-49.5 -10h-130l134 220q16 26 43.5 41t70.5 15h179zM1301 1826l-262 -237q-23 -20 -45.5 -29.5t-53.5 -9.5h-148l182 220q21 25 50 40.5t72 15.5h205z" />
    <glyph glyph-name="uhungarumlaut" unicode="&#x171;" horiz-adv-x="1133" 
d="M1019 1031v-1031h-170q-53 0 -68 48l-18 72q-31 -30 -64 -55t-70.5 -43t-81 -28t-94.5 -10q-84 0 -149.5 29t-109.5 81t-67 124t-23 158v655h276v-655q0 -86 39.5 -133.5t117.5 -47.5q58 0 109 25.5t97 69.5v741h276zM704 1467l-200 -262q-17 -23 -38 -30.5t-52 -7.5
h-113l122 244q14 28 36.5 42t65.5 14h179zM1066 1467l-255 -262q-20 -21 -39.5 -29.5t-50.5 -8.5h-130l177 244q9 13 18 23.5t20.5 17.5t27 11t36.5 4h196z" />
    <glyph glyph-name="Uogonek" unicode="&#x172;" horiz-adv-x="1491" 
d="M1357 1451v-864q0 -117 -33.5 -217t-96.5 -177.5t-153.5 -129t-204.5 -69.5q-36 -22 -63 -53.5t-27 -70.5q0 -28 16.5 -44t46.5 -16q17 0 28 1.5t17.5 4t11.5 4t10 1.5q19 0 26 -17l41 -100q-34 -22 -84.5 -36.5t-107.5 -14.5q-103 0 -156.5 41.5t-53.5 106.5
q0 49 30.5 96.5t90.5 88.5q-131 8 -235 55.5t-176.5 127t-111 186t-38.5 232.5v864h300v-864q0 -80 21 -144t61 -109t98 -69.5t132 -24.5q73 0 131 24.5t98 69.5t61 109t21 144v864h300z" />
    <glyph glyph-name="uogonek" unicode="&#x173;" horiz-adv-x="1133" 
d="M1116 -295q-34 -22 -84.5 -36.5t-107.5 -14.5q-103 0 -156.5 41.5t-53.5 106.5q0 54 35.5 105t106.5 93h-7q-53 0 -68 48l-18 72q-31 -30 -64 -55t-70.5 -43t-81 -28t-94.5 -10q-84 0 -149.5 29t-109.5 81t-67 124t-23 158v655h276v-655q0 -86 39.5 -133.5t117.5 -47.5
q58 0 109 25.5t97 69.5v741h276v-1031q-20 -11 -38 -24.5t-31.5 -30t-22 -35t-8.5 -39.5q0 -28 16.5 -44t46.5 -16q17 0 28 1.5t17.5 4t11.5 4t10 1.5q19 0 26 -17z" />
    <glyph glyph-name="Wcircumflex" unicode="&#x174;" horiz-adv-x="2115" 
d="M2104 1451l-450 -1451h-271l-297 949q-7 20 -14 44t-13 51q-6 -27 -13 -51t-14 -44l-300 -949h-272l-449 1451h252q39 0 65.5 -18t34.5 -48l225 -818q8 -34 16.5 -73.5t16.5 -83.5q9 45 19 84t22 73l262 818q8 25 34.5 45.5t64.5 20.5h88q39 0 63.5 -18.5t36.5 -47.5
l261 -818q12 -32 22 -69.5t19 -79.5q8 42 15.5 79.5t15.5 69.5l225 818q7 26 34 46t65 20h236zM1428 1550h-200q-16 0 -39.5 6t-48.5 35l-68 94q-5 6 -8.5 12t-7.5 12q-4 -6 -7.5 -12t-8.5 -12l-68 -94q-25 -29 -48.5 -35t-39.5 -6h-191l242 276h250z" />
    <glyph glyph-name="wcircumflex" unicode="&#x175;" horiz-adv-x="1619" 
d="M1607 1031l-324 -1031h-223q-17 0 -30.5 11t-20.5 37l-168 558q-10 32 -17.5 63.5t-13.5 63.5q-7 -32 -14.5 -64.5t-17.5 -64.5l-170 -556q-14 -48 -60 -48h-212l-324 1031h220q30 0 50.5 -14t27.5 -36l127 -510q12 -49 21 -95t17 -91q12 45 25.5 91t28.5 95l151 512
q7 21 27 35t47 14h122q29 0 49.5 -14t27.5 -35l146 -512q14 -48 27 -94.5t24 -93.5q8 46 17.5 92.5t22.5 95.5l133 510q7 22 27 36t47 14h210zM1172 1168h-184q-16 0 -31 5.5t-31 20.5l-88 95q-5 5 -11 11.5t-11 14.5q-12 -15 -23 -26l-90 -95q-28 -26 -62 -26h-191l232 283
h258z" />
    <glyph glyph-name="Ycircumflex" unicode="&#x176;" horiz-adv-x="1316" 
d="M808 558v-558h-300v558l-527 893h264q39 0 62.5 -18.5t37.5 -47.5l238 -457q24 -46 43.5 -86t34.5 -80q14 40 32.5 80.5t41.5 85.5l236 457q12 24 36 45t62 21h266zM1033 1550h-200q-16 0 -39.5 6t-48.5 35l-68 94q-5 6 -8.5 12t-7.5 12q-4 -6 -7.5 -12t-8.5 -12l-68 -94
q-25 -29 -48.5 -35t-39.5 -6h-191l242 276h250z" />
    <glyph glyph-name="ycircumflex" unicode="&#x177;" horiz-adv-x="1064" 
d="M1070 1031l-556 -1308q-13 -28 -31.5 -42t-58.5 -14h-205l195 416l-414 948h242q33 0 51 -15t26 -35l196 -493q11 -29 19.5 -58.5t16.5 -58.5q18 59 41 118l182 492q8 22 29 36t46 14h221zM918 1168h-184q-16 0 -31 5.5t-31 20.5l-88 95q-5 5 -11 11.5t-11 14.5
q-12 -15 -23 -26l-90 -95q-28 -26 -62 -26h-191l232 283h258z" />
    <glyph glyph-name="Ydieresis" unicode="&#x178;" horiz-adv-x="1316" 
d="M808 558v-558h-300v558l-527 893h264q39 0 62.5 -18.5t37.5 -47.5l238 -457q24 -46 43.5 -86t34.5 -80q14 40 32.5 80.5t41.5 85.5l236 457q12 24 36 45t62 21h266zM581 1667q0 -29 -11.5 -54.5t-32 -44t-47.5 -29.5t-57 -11q-28 0 -53 11t-44.5 29.5t-31 44t-11.5 54.5
t11.5 55.5t31 46t44.5 31t53 11.5q30 0 57 -11.5t47.5 -31t32 -46t11.5 -55.5zM1029 1667q0 -29 -11.5 -54.5t-31 -44t-45.5 -29.5t-56 -11t-56 11t-45.5 29.5t-31 44t-11.5 54.5t11.5 55.5t31 46t45.5 31t56 11.5t56 -11.5t45.5 -31t31 -46t11.5 -55.5z" />
    <glyph glyph-name="Zacute" unicode="&#x179;" horiz-adv-x="1214" 
d="M1165 1341q0 -23 -7.5 -46.5t-21.5 -43.5l-716 -1016h725v-235h-1110v117q0 21 7 41.5t20 37.5l718 1020h-694v235h1079v-110zM1066 1864l-323 -286q-11 -9 -21 -14.5t-20.5 -8.5t-23 -4t-27.5 -1h-200l200 271q11 15 21.5 23.5t23 13t28.5 5.5t37 1h305z" />
    <glyph glyph-name="zacute" unicode="&#x17a;" horiz-adv-x="925" 
d="M867 919q0 -29 -10 -56.5t-26 -44.5l-463 -610h486v-208h-805v114q0 17 9.5 43t26.5 49l467 617h-474v208h789v-112zM855 1467l-253 -262q-20 -21 -39.5 -29.5t-50.5 -8.5h-166l140 244q15 28 36.5 42t65.5 14h267z" />
    <glyph glyph-name="Zdotaccent" unicode="&#x17b;" horiz-adv-x="1214" 
d="M1165 1341q0 -23 -7.5 -46.5t-21.5 -43.5l-716 -1016h725v-235h-1110v117q0 21 7 41.5t20 37.5l718 1020h-694v235h1079v-110zM792 1697q0 -32 -13 -60.5t-36 -50.5t-53.5 -34.5t-64.5 -12.5q-32 0 -60.5 12.5t-50.5 34.5t-35 50.5t-13 60.5q0 33 13 62.5t35 51.5
t50.5 35t60.5 13q34 0 64.5 -13t53.5 -35t36 -51.5t13 -62.5z" />
    <glyph glyph-name="zdotaccent" unicode="&#x17c;" horiz-adv-x="925" 
d="M867 919q0 -29 -10 -56.5t-26 -44.5l-463 -610h486v-208h-805v114q0 17 9.5 43t26.5 49l467 617h-474v208h789v-112zM658 1326q0 -34 -14 -64.5t-37.5 -53t-55 -36t-67.5 -13.5q-34 0 -64.5 13.5t-53.5 36t-36.5 53t-13.5 64.5q0 35 13.5 65.5t36.5 53.5t53.5 36.5
t64.5 13.5q36 0 67.5 -13.5t55 -36.5t37.5 -53.5t14 -65.5z" />
    <glyph glyph-name="Zcaron" unicode="&#x17d;" horiz-adv-x="1214" 
d="M1165 1341q0 -23 -7.5 -46.5t-21.5 -43.5l-716 -1016h725v-235h-1110v117q0 21 7 41.5t20 37.5l718 1020h-694v235h1079v-110zM1001 1826l-243 -276h-258l-243 276h200q8 0 18 -0.5t21 -3.5t21.5 -9.5t19.5 -18.5l76 -104q5 -6 8.5 -12t7.5 -12q4 6 7.5 12t8.5 12l75 103
q9 12 19.5 19t21.5 10t21.5 3.5t18.5 0.5h200z" />
    <glyph glyph-name="zcaron" unicode="&#x17e;" horiz-adv-x="925" 
d="M867 919q0 -29 -10 -56.5t-26 -44.5l-463 -610h486v-208h-805v114q0 17 9.5 43t26.5 49l467 617h-474v208h789v-112zM847 1451l-232 -283h-258l-232 283h191q17 0 31.5 -5.5t22.5 -12.5l96 -102q12 -12 24 -27q6 8 11.5 14.5t11.5 12.5l96 102q8 6 23 12t31 6h184z" />
    <glyph glyph-name="longs" unicode="&#x17f;" horiz-adv-x="618" 
d="M189 1093q0 88 27.5 159.5t79 121t125 76.5t166.5 27q37 0 69.5 -4.5t65.5 -13.5l-9 -142q-2 -23 -25.5 -29.5t-52.5 -6.5q-43 0 -75 -10t-53 -33.5t-31.5 -61t-10.5 -91.5v-1085h-276v833l-80 14q-31 6 -50.5 22t-19.5 46v110h150v68z" />
    <glyph glyph-name="uni0180" unicode="&#x180;" horiz-adv-x="1142" 
d="M389 273q39 -45 84.5 -63.5t97.5 -18.5q50 0 91 16.5t70.5 53.5t45.5 97.5t16 147.5q0 86 -13.5 143t-38 91t-59.5 48t-78 14q-73 0 -122.5 -29t-93.5 -83v-417zM389 878q60 62 135 98.5t176 36.5q83 0 152.5 -32t119.5 -96t78 -158.5t28 -220.5q0 -116 -31.5 -211.5
t-89.5 -164.5t-139.5 -107t-181.5 -38q-47 0 -84.5 9.5t-69 26.5t-58.5 40.5t-51 52.5l-11 -62q-6 -29 -22.5 -40.5t-43.5 -11.5h-182v1127h-143v167h143v197h275v-197h223v-167h-223v-249z" />
    <glyph glyph-name="uni0181" unicode="&#x181;" horiz-adv-x="1665" 
d="M1047 230q71 0 118 17.5t74.5 46.5t39 66.5t11.5 77.5q0 44 -13 79t-42 59.5t-75.5 37.5t-114.5 13h-255v-397h257zM790 1223v-392h197q63 0 111.5 10.5t82 33.5t51 60.5t17.5 90.5q0 54 -14.5 92t-44.5 61t-76 33.5t-109 10.5h-215zM1005 1451q146 0 249 -27.5
t168.5 -78t96 -122.5t30.5 -161q0 -100 -59.5 -182t-193.5 -130q148 -35 219.5 -114t71.5 -205q0 -92 -35.5 -171t-104 -137t-168 -90.5t-227.5 -32.5h-563v1237h-10q-55 0 -92.5 -10.5t-61 -30.5t-33.5 -50t-10 -70q0 -26 4.5 -48t7.5 -31q3 -13 3.5 -26t-4.5 -24.5
t-16.5 -21t-32.5 -14.5l-175 -38q-20 52 -31 99.5t-11 106.5q0 85 30 153.5t87.5 117t142 75t192.5 26.5h526z" />
    <glyph glyph-name="uni0182" unicode="&#x182;" horiz-adv-x="1267" 
d="M670 230q71 0 118 16t75 43.5t39.5 63.5t11.5 76q0 45 -11.5 82t-39 63.5t-74.5 40.5t-119 14h-218v-399h218zM670 860q145 0 248 -32t167.5 -87t94.5 -127.5t30 -154.5q0 -104 -36.5 -188.5t-105.5 -144.5t-169.5 -93t-228.5 -33h-518v1451h1004v-228h-704v-363h218z
" />
    <glyph glyph-name="uni0183" unicode="&#x183;" horiz-adv-x="1142" 
d="M390 272q39 -45 84.5 -63t97.5 -18q50 0 91 19t70.5 59.5t45.5 103.5t16 150q0 86 -13.5 146t-38 97t-59.5 53.5t-78 16.5q-73 0 -122.5 -28.5t-93.5 -83.5v-452zM390 912q60 62 135 98.5t176 36.5q83 0 152.5 -35t119.5 -101.5t78 -164t28 -223.5q0 -116 -31.5 -214.5
t-89.5 -170.5t-139.5 -112.5t-181.5 -40.5q-47 0 -84.5 9.5t-69 26.5t-58.5 40.5t-51 52.5l-11 -62q-7 -29 -23 -40.5t-43 -11.5h-183v1491h872v-192h-596v-387z" />
    <glyph glyph-name="uni0184" unicode="&#x184;" horiz-adv-x="1427" 
d="M835 957q143 0 248.5 -38.5t174.5 -103.5t103 -151.5t34 -182.5q0 -102 -35.5 -190t-104 -152.5t-169 -101.5t-230.5 -37h-577v858l-262 177l341 416h220v-494h257zM851 230q73 0 121 25.5t76 63.5t39 83.5t11 85.5q0 44 -13 87t-42 76.5t-76.5 54.5t-117.5 21h-270v-497
h272z" />
    <glyph glyph-name="uni0185" unicode="&#x185;" horiz-adv-x="1190" 
d="M439 272q39 -45 84.5 -63t96.5 -18q50 0 91 19t70.5 59.5t45.5 103.5t16 150q0 86 -13 146t-37.5 97t-59.5 53.5t-78 16.5q-37 0 -67 -7t-55.5 -21.5t-48.5 -35t-45 -47.5v-453zM439 913q60 61 135 97.5t176 36.5q82 0 151.5 -35t120 -101.5t78.5 -164t28 -223.5
q0 -116 -31.5 -214.5t-89.5 -170.5t-140 -112.5t-182 -40.5q-47 0 -84.5 9t-69 26t-58 40.5t-50.5 52.5l-11 -61q-7 -29 -23 -40.5t-44 -11.5h-182v961l-234 158l304 372h206v-578z" />
    <glyph glyph-name="uni0186" unicode="&#x186;" horiz-adv-x="1322" 
d="M181 357q14 0 26.5 -6t23.5 -15q31 -29 63 -48t67 -31t76.5 -17t92.5 -5q86 0 161.5 32.5t132 95.5t89 154.5t32.5 208.5q0 116 -30 207t-84.5 153.5t-130 95.5t-166.5 33q-83 0 -136 -17t-89 -38t-60 -38t-49 -17q-24 0 -37.5 10t-23.5 23l-100 138q85 85 208.5 138
t284.5 53q160 0 292.5 -55t228 -153t148 -234t52.5 -299q0 -161 -49 -297t-140 -235t-221 -154.5t-293 -55.5q-180 0 -311 58t-219 170l119 127q10 10 20.5 14t21.5 4z" />
    <glyph glyph-name="uni0187" unicode="&#x187;" horiz-adv-x="1329" 
d="M1038 1443q0 63 16 124.5t55 110t103.5 78t162.5 29.5q37 0 67 -3t56.5 -8t51.5 -12.5t51 -17.5l-39 -153q-6 -20 -15.5 -31t-21 -16t-25 -4.5t-26.5 3.5q-14 3 -32 5.5t-37 2.5q-64 0 -92 -44t-28 -131v-100l-101 -138q-9 -13 -23 -23t-38 -10q-25 0 -49 17t-60 38
t-89 38t-136 17q-91 0 -166.5 -33t-130 -95.5t-84.5 -153.5t-30 -207q0 -117 32.5 -208.5t89 -154.5t132 -95.5t161.5 -32.5q51 0 92.5 5t77 17t67 31t63.5 48q11 9 23 15t26 6q11 0 22 -4t20 -14l119 -127q-88 -112 -218.5 -170t-310.5 -58q-163 0 -293 55.5t-221 154.5
t-140 235t-49 297q0 108 24 205.5t68 179.5t108 148t144 112.5t174.5 71t201.5 24.5q69 0 130.5 -10t116.5 -29v15z" />
    <glyph glyph-name="uni0188" unicode="&#x188;" horiz-adv-x="978" 
d="M935 899l-72 -98q-12 -16 -24 -24.5t-34 -8.5q-20 0 -38.5 11.5t-42.5 25t-57 25t-82 11.5q-62 0 -107.5 -22.5t-75.5 -64.5t-44.5 -102t-14.5 -135q0 -158 63.5 -242t173.5 -84q38 0 65.5 6.5t48 16.5t35.5 22t28.5 22t27 16.5t30.5 6.5q32 0 50 -24l79 -100
q-44 -51 -94 -84.5t-103.5 -53t-108.5 -27t-109 -7.5q-95 0 -180 35.5t-149 103.5t-101.5 167t-37.5 226q0 113 33 210t97 168t158.5 111.5t218.5 40.5q34 0 65.5 -3.5t61.5 -9.5v72q0 64 17 126t54 110t96 77.5t143 29.5q45 0 91.5 -9.5t97.5 -31.5l-30 -118
q-9 -32 -26.5 -42t-33.5 -10t-36 5.5t-46 5.5q-50 0 -68.5 -33t-18.5 -97v-220z" />
    <glyph glyph-name="uni0189" unicode="&#x189;" horiz-adv-x="1541" 
d="M730 235q102 0 182.5 33.5t136.5 97t86 154.5t30 206q0 114 -30 205t-86 154t-136.5 97t-182.5 34h-256v-403h256v-167h-256v-411h256zM730 1451q167 0 304 -54t234.5 -150.5t151 -229.5t53.5 -291q0 -159 -53.5 -292.5t-151 -229.5t-234.5 -150t-304 -54h-558v646h-174
v167h174v638h558z" />
    </font>
</defs>
</svg>
